<?xml version="1.0" standalone="no"?> <!DOCTYPE svg PUBLIC "-//W3C//DTD SVG 1.0//EN" "http://www.w3.org/TR/2001/REC-SVG-20010904/DTD/svg10.dtd" > <svg xmlns="http://www.w3.org/2000/svg" width="100%" height="100%">
<defs >
<font id="ge_ss_two_light" horiz-adv-x="1133" ><font-face
    font-family="GE SS Two Light"
    units-per-em="2048"
    panose-1="2 10 5 3 2 1 2 2 2 4"
    ascent="1690"
    descent="-491"
    alphabetic="0" />
<missing-glyph horiz-adv-x="1024" d="M129 0H897V1536H129V0ZM256 129V1409H768V129H256Z" />
<glyph unicode=" " glyph-name="space" horiz-adv-x="364" />
<glyph unicode="!" glyph-name="exclam" horiz-adv-x="378" d="M215 805V1327H66V805Q66 793 82 612L111 270H170L201 612Q215 770 215 805ZM215 0V158H66V0H215Z" />
<glyph unicode="&quot;" glyph-name="quotedbl" horiz-adv-x="514" d="M211 1405H43L98 848H160L211 1405ZM467 1405H299L354 848H416L467 1405Z" />
<glyph unicode="$" glyph-name="dollar" horiz-adv-x="1105" d="M936 412Q936 633 569 737V1090Q641 1076 696 1026T768 909L907 920Q834 1155 569 1204V1368H465V1204Q332 1192 238 1120Q133 1040 133 911Q133 692 465 602V223Q370 237 305 298T217 453L66 438Q99
287 215 199Q313 122 465 102V-74H569V102Q708 102 817 182Q936 271 936 412ZM465 766Q377 794 344 815Q283 861 283 926Q283 999 340 1047Q396 1088 465 1094V766ZM780 387Q780 237 569 219V573Q780 516 780 387Z" />
<glyph unicode="&apos;" glyph-name="quotesingle" horiz-adv-x="258" d="M211 1405H43L98 848H160L211 1405Z" />
<glyph unicode="(" glyph-name="parenleft" horiz-adv-x="659" d="M600 -221Q439 -93 342 133Q248 360 248 621Q248 880 330 1071T596 1434L532 1509Q72 1175 72 606Q72 64 539 -307L600 -221Z" />
<glyph unicode=")" glyph-name="parenright" horiz-adv-x="659" d="M594 600Q594 1141 129 1513L66 1427Q228 1301 324 1073Q418 851 418 588Q418 91 68 -229L131 -303Q594 34 594 600Z" />
<glyph unicode="*" glyph-name="at" horiz-adv-x="673" d="M612 285V371L375 348L510 557L440 604L336 362L238 604L160 555L297 344L61 371V283L297 301L164 86L240 37L336 279L442 47L520 86L381 301L612 285Z" />
<glyph unicode="+" glyph-name="plus" horiz-adv-x="1261" d="M561 66H700V504H1139V643H700V1081H561V643H123V504H561V66Z" />
<glyph unicode="-" glyph-name="hyphen" horiz-adv-x="1314" d="M1192 399V541H123V399H1192Z" />
<glyph unicode="." glyph-name="period" horiz-adv-x="360" d="M238 0V213H51V0H238Z" />
<glyph unicode="/" glyph-name="slash" horiz-adv-x="714" d="M649 1327H506L66 0H211L649 1327Z" />
<glyph unicode="0" glyph-name="zero" horiz-adv-x="561" d="M381 244V528L180 651V369L381 244Z" />
<glyph unicode="1" glyph-name="one" horiz-adv-x="413" d="M279 0V1321L135 1210V0H279Z" />
<glyph unicode="2" glyph-name="two" horiz-adv-x="976" d="M842 1196V1325Q760 1323 668 1323Q372 1323 236 1085Q135 913 135 641V0H279V664Q279 883 362 1022Q466 1196 680 1196H842Z" />
<glyph unicode="3" glyph-name="three" horiz-adv-x="1101" d="M967 1141V1323H840V1198Q840 1127 827 1078T782 989T691 930T545 911Q577 917 598 941T629 1003T640 1071T643 1141V1323H520V1198Q520 1126 511 1081T475 999T401 948T276 932V1325H135V0H279V786H590Q764
786 865 881T967 1141Z" />
<glyph unicode="4" glyph-name="four" horiz-adv-x="1003" d="M868 0V129H539Q425 129 353 200T281 381Q281 489 354 562T539 635Q560 635 579 635T612 635T634 634T650 633H655V758H549Q446 758 377 822T307 987Q307 1082 373 1141T549 1200H821V1323H508Q357
1323 263 1240T168 1018Q168 786 371 696Q135 632 135 356Q135 201 251 101T541 0H868Z" />
<glyph unicode="5" glyph-name="five" horiz-adv-x="1161" d="M1026 578Q1026 769 842 983Q702 1146 580 1208Q460 1149 317 983Q135 766 135 578Q135 357 257 224T578 90Q778 90 902 225T1026 578ZM868 565Q868 401 792 306T580 211Q448 211 370 307T291 565Q291
692 380 846T580 1067Q653 1025 720 939T827 751T868 565Z" />
<glyph unicode="6" glyph-name="six" horiz-adv-x="976" d="M842 641Q842 962 703 1143T307 1325H135V1196H295Q486 1196 592 1054T698 664V0H842V641Z" />
<glyph unicode="7" glyph-name="seven" horiz-adv-x="1079" d="M944 1325H801L551 102L274 1325H135L428 0H655L944 1325Z" />
<glyph unicode="8" glyph-name="eight" horiz-adv-x="1079" d="M944 0L655 1325H428L135 0H274L551 1223L801 0H944Z" />
<glyph unicode="9" glyph-name="nine" horiz-adv-x="1044" d="M907 909Q907 1096 806 1209T524 1323Q346 1323 241 1207T135 907Q135 721 238 609T522 496Q666 496 764 575V0H907V909ZM764 922Q764 602 522 602Q410 602 346 682T281 899Q281 1050 346 1132T532
1214Q646 1214 705 1138T764 922Z" />
<glyph unicode=":" glyph-name="colon" horiz-adv-x="360" d="M238 406V616H51V406H238ZM238 0V213H51V0H238Z" />
<glyph unicode="&lt;" glyph-name="less" horiz-adv-x="1110" d="M915 0L436 477L915 956H733L254 477L733 0H915Z" />
<glyph unicode="=" glyph-name="equal" horiz-adv-x="1239" d="M1116 670V809H123V670H1116ZM1116 307V449H123V307H1116Z" />
<glyph unicode="&gt;" glyph-name="greater" horiz-adv-x="1110" d="M856 477L377 956H215L694 477L215 0H377L856 477Z" />
<glyph unicode="[" glyph-name="bracketleft" horiz-adv-x="479" d="M414 -272V-160H217V1362H414V1473H66V-272H414Z" />
<glyph unicode="\" glyph-name="backslash" horiz-adv-x="704" d="M639 0L203 1327H57L498 0H639Z" />
<glyph unicode="]" glyph-name="bracketright" horiz-adv-x="479" d="M414 -270V1473H66V1362H262V-160H66V-270H414Z" />
<glyph unicode="_" glyph-name="underscore" horiz-adv-x="782" d="M748 -164V-33H33V-164H748Z" />
<glyph unicode="{" glyph-name="braceleft" horiz-adv-x="768" d="M684 -289V-221Q603 -220 552 -213T461 -184T406 -125T389 -27V387Q389 496 242 592Q389 706 389 795V1208Q389 1329 448 1370T682 1411V1489Q449 1489 348 1424T246 1208V795Q246 731 199 677T78
592H74Q246 479 246 387V-27Q246 -165 334 -229T625 -293L684 -289Z" />
<glyph unicode="|" glyph-name="bar" horiz-adv-x="270" d="M70 -289H199V1485H70V-289Z" />
<glyph unicode="}" glyph-name="braceright" horiz-adv-x="768" d="M74 -289V-221Q155 -220 206 -213T296 -184T352 -125T369 -27V387Q369 496 516 592Q369 706 369 795V1208Q369 1329 310 1370T76 1411V1489Q309 1489 410 1424T512 1208V795Q512 731 559 677T680
592H684Q512 480 512 387V-27Q512 -165 424 -229T133 -293L74 -289Z" />
</font>
</defs>
</svg>
