<?xml version="1.0" standalone="no"?>
<!DOCTYPE svg PUBLIC "-//W3C//DTD SVG 1.1//EN" "http://www.w3.org/Graphics/SVG/1.1/DTD/svg11.dtd" >
<svg xmlns="http://www.w3.org/2000/svg">
<metadata></metadata>
<defs>
<font id="swatch_itregular" horiz-adv-x="638" >
<font-face units-per-em="2048" ascent="1638" descent="-410" />
<missing-glyph horiz-adv-x="500" />
<glyph horiz-adv-x="2048" />
<glyph horiz-adv-x="2048" />
<glyph unicode="&#xd;" />
<glyph unicode=" " />
<glyph unicode="!" horiz-adv-x="360" d="M66 119q0 41 30.5 70.5t73.5 29.5t73.5 -29.5t30.5 -70.5t-30.5 -72t-73.5 -31t-73.5 31t-30.5 72zM66 319v979h208v-979h-208z" />
<glyph unicode="&#x22;" horiz-adv-x="315" d="M4 1636h150l-21 -227h-108zM188 1636h150l-21 -227h-108z" />
<glyph unicode="#" horiz-adv-x="952" d="M59 557v211h136v117h-136v211h136v135h211v-135h116v135h211v-135h135v-211h-135v-117h135v-211h-135v-135h-211v135h-116v-135h-211v135h-136zM406 768h116v117h-116v-117z" />
<glyph unicode="$" horiz-adv-x="1329" d="M31 944q0 145 104.5 249.5t249.5 104.5h180v338h211v-338h502v-208h-887q-61 0 -106 -43t-45 -105q0 -63 45 -106t106 -43h543q231 0 344 -195q51 -90 51 -192q0 -172 -117.5 -281t-289.5 -109h-146v-327h-211v327h-518v213h875q76 0 130 52.5t54 128.5t-53.5 128 t-130.5 52h-531q-207 0 -311 174q-49 84 -49 180z" />
<glyph unicode="'" horiz-adv-x="204" d="M8 1409v227h211l-82 -227h-129z" />
<glyph unicode="(" horiz-adv-x="634" d="M-6 170v1317q0 129 78 235.5t200 143.5q57 16 136 20q55 4 141 2q121 -4 131 -4v-184q-25 0 -74 2h-76q-203 0 -282 -111q-16 -23 -34.5 -79t-18.5 -82v-1203q0 -29 18 -84t35 -77q80 -113 282 -113q25 0 75 2t75 2v-186q-10 0 -131 -2q-86 -2 -141 0q-78 6 -136 22 q-123 35 -200.5 141.5t-77.5 237.5z" />
<glyph unicode=")" horiz-adv-x="829" d="M61 -43v-186q12 0 132 -2q88 -2 143 0q78 6 133 22q125 35 203 141.5t78 237.5v1317q0 129 -78 235.5t-203 143.5q-55 16 -133 20q-55 4 -143 2q-119 -4 -132 -4v-184q27 0 76 2h76q203 0 283 -111q16 -23 33.5 -79t17.5 -82v-1203q0 -29 -17.5 -84t-33.5 -77 q-80 -113 -283 -113q-27 0 -76 2t-76 2z" />
<glyph unicode="+" horiz-adv-x="935" d="M49 721v211h299v299h211v-299h299v-211h-299v-299h-211v299h-299z" />
<glyph unicode="," horiz-adv-x="397" d="M63 119q0 41 32 70.5t73 29.5q43 0 74.5 -29.5t31.5 -70.5q0 -53 -49 -111q-51 -63 -112 -65q-2 4 -7 8q0 2 5.5 19.5t5.5 29.5q0 20 -11 37q-43 49 -43 82z" />
<glyph unicode="-" horiz-adv-x="1009" d="M78 721v211h809v-211h-809z" />
<glyph unicode="." horiz-adv-x="391" d="M63 119q0 41 32 70.5t73 29.5q43 0 74.5 -29.5t31.5 -70.5t-31.5 -72t-74.5 -31q-41 0 -73 31t-32 72z" />
<glyph unicode="/" horiz-adv-x="739" d="M43 16h166l489 1280h-166z" />
<glyph unicode="0" horiz-adv-x="1384" d="M59 406v538q0 145 103.5 249.5t251.5 104.5h536q147 0 251 -104t104 -250v-538q0 -176 -94.5 -283t-260.5 -107h-536q-168 0 -261.5 106.5t-93.5 283.5zM268 410q0 -180 146 -181h536q145 0 146 181v532q0 61 -42 104.5t-104 43.5h-536q-63 0 -104.5 -43t-41.5 -105v-532 z" />
<glyph unicode="1" horiz-adv-x="360" d="M61 16v1282h211v-1282h-211z" />
<glyph unicode="2" horiz-adv-x="1386" d="M43 16h1282v213h-1061q-2 25 717 340q147 59 174 74q94 49 135 121q49 84 49 180q0 145 -103 249.5t-251 104.5h-891v-208h885q63 0 108.5 -43t45.5 -105q0 -102 -154 -170l-725 -326q-211 -94 -211 -217v-213z" />
<glyph unicode="3" horiz-adv-x="1370" d="M57 16v213h854q76 0 130.5 49.5t54.5 124.5q0 70 -46 112t-118 48h-875v209h838q78 0 132 43t54 117q0 76 -53 118t-133 42h-838v206h850q236 0 346 -192q49 -86 50 -178q0 -162 -111 -262q45 -41 76 -95q51 -90 51 -172q0 -170 -118 -276.5t-290 -106.5h-854z" />
<glyph unicode="4" horiz-adv-x="1447" d="M61 944v354h209v-356q0 -63 45 -106t107 -43h717v505h221v-1282h-221v574h-717q-207 0 -311 174q-49 84 -50 180z" />
<glyph unicode="5" horiz-adv-x="1335" d="M33 590v708h1247v-208h-1038v-297h692q233 0 346 -195q51 -90 51 -192q0 -172 -117.5 -281t-289.5 -109h-875v213h875q76 0 130 52.5t54 128.5t-53.5 128t-130.5 52h-891z" />
<glyph unicode="6" horiz-adv-x="1337" d="M33 406v538q0 145 104.5 249.5t249.5 104.5h893v-208h-887q-61 0 -106 -43t-45 -105v-149h745v-5q197 -23 293 -190q51 -90 51 -192q0 -172 -117.5 -281t-289.5 -109h-467q-174 0 -299 110t-125 280zM270 410q0 -76 55.5 -128.5t131.5 -52.5h467q76 0 131 52.5t55 128.5 t-54 128t-132 52h-654v-180z" />
<glyph unicode="7" horiz-adv-x="1064" d="M25 16l665 1071h-665v209h1030l-797 -1280h-233z" />
<glyph unicode="8" horiz-adv-x="1386" d="M57 399q0 82 52 172q31 53 75 95q-113 100 -112 262q0 92 49 178q111 193 348 192h453q236 0 348 -192q49 -86 49 -178q0 -162 -113 -262q45 -41 76 -95q51 -90 51 -172q0 -170 -116.5 -276.5t-288.5 -106.5h-465q-172 0 -289 106.5t-117 276.5zM279 403q0 -76 54 -125 t132 -49h461q78 0 132 49.5t54 124.5q0 70 -47 115t-117 45h-506q-70 0 -116.5 -45t-46.5 -115zM295 932q0 -72 53 -116t131 -44h432q78 0 131.5 44t53.5 116q0 76 -52.5 118t-132.5 42h-432q-80 0 -132 -42t-52 -118z" />
<glyph unicode="9" horiz-adv-x="1439" d="M63 911q0 170 118 278.5t290 108.5h467q174 0 299 -108.5t125 -278.5v-538q0 -147 -104.5 -252t-249.5 -105h-893v209h886q61 0 106.5 44t45.5 106v149h-745v4q-197 23 -293 191q-51 90 -52 192zM285 907q0 -76 54 -128t132 -52h653v180q0 76 -55 128t-131 52h-467 q-76 0 -131 -52t-55 -128z" />
<glyph unicode=":" horiz-adv-x="333" d="M59 119q0 41 31 70.5t74 29.5t73.5 -29.5t30.5 -70.5t-30.5 -72t-73.5 -31t-74 31t-31 72zM59 659q0 41 31 71t74 30t73.5 -30t30.5 -71t-30.5 -71.5t-73.5 -30.5t-74 30.5t-31 71.5z" />
<glyph unicode=";" horiz-adv-x="333" d="M59 119q0 41 31 70.5t74 29.5t73.5 -29.5t30.5 -70.5q0 -53 -47 -111q-53 -63 -112 -65q-4 4 -7 8q0 2 4.5 19.5t4.5 29.5q0 20 -9 37q-43 49 -43 82zM59 659q0 41 31 71t74 30t73.5 -30t30.5 -71t-30.5 -71.5t-73.5 -30.5t-74 30.5t-31 71.5z" />
<glyph unicode="=" horiz-adv-x="983" d="M72 557v211h809v-211h-809zM72 885v211h809v-211h-809z" />
<glyph unicode="?" horiz-adv-x="1292" d="M10 119q0 41 32 70.5t75 29.5q41 0 72.5 -29.5t31.5 -70.5t-31.5 -72t-72.5 -31q-43 0 -75 31t-32 72zM10 319h223v87q0 78 53.5 131t131.5 53h530q209 0 312 174q49 84 49 180q0 145 -104.5 249.5t-250.5 104.5h-893v-208h887q61 0 106.5 -43t45.5 -105q0 -63 -44 -106 t-108 -43h-540q-233 0 -347 -195q-51 -90 -51 -192v-87z" />
<glyph unicode="@" horiz-adv-x="1376" d="M-10 18v1242h1253v-1242h-1253zM72 471h385v-379h325v379h379v332h-379v385h-325v-385h-385v-332z" />
<glyph unicode="A" horiz-adv-x="1316" d="M61 657q0 156 72 297q86 164 241.5 254t344.5 90h510v-1282h-199v1098h-285q-197 0 -334 -131t-137 -326t135.5 -324.5t329.5 -129.5q117 0 215 55v-207q-129 -43 -225 -43q-276 0 -472 187.5t-196 461.5z" />
<glyph unicode="B" horiz-adv-x="1284" d="M61 16v1620h199v-338h311q188 0 344 -90t240 -254q74 -141 74 -297q0 -274 -195.5 -457.5t-472.5 -183.5h-500zM260 223h291q197 0 330 121t133 313q0 195 -136.5 326t-332.5 131h-285v-891z" />
<glyph unicode="C" horiz-adv-x="1239" d="M217.5 1126.5q194.5 190.5 478.5 190.5q350 0 541 -268l-162 -111q-174 188 -387 188q-190 0 -327.5 -139t-137.5 -332q0 -190 137.5 -326t327.5 -136q145 0 263 77.5t167 210.5l139 -133q-186 -350 -540 -350q-293 0 -490 180q-204 185 -204 474q0 284 194.5 474.5z" />
<glyph unicode="D" horiz-adv-x="1310" d="M61 657q0 -274 195 -457.5t473 -183.5h500v1620h-199v-338h-311q-188 0 -344 -90t-242 -254q-72 -141 -72 -297zM274 657q0 195 137.5 326t333.5 131h285v-891h-291q-197 0 -331 121t-134 313z" />
<glyph unicode="E" horiz-adv-x="1476" d="M43 655q0 276 205 469t489 193q307 -2 482 -139q206 -161 206 -499q0 -44 -2 -89h-983v164h758l2 2q-57 370 -461 370h-2q-203 0 -349 -137q-144 -135 -144 -329v-5q2 -193 138 -327.5t329 -134.5q164 0 311 61q172 74 219 199l137 -134q-84 -158 -268 -241 q-168 -80 -373 -80q-287 0 -490.5 189.5t-203.5 467.5z" />
<glyph unicode="F" horiz-adv-x="651" d="M10 16h203v897h446v193h-446v78q0 27 17.5 83t33.5 79q81 110 279 110h4h76q49 -2 75 -2v184q-12 0 -131 4q-29 1 -54 1q-51 0 -89 -3q-78 -4 -133 -20q-125 -37 -203 -143.5t-78 -235.5v-1225z" />
<glyph unicode="G" horiz-adv-x="1308" d="M61 659q0 274 196 462t472 188q14 0 96 4q36 1 64.5 1t48.5 -1q61 -2 94 -15h197l-2 -1310q0 -135 -74 -244q-78 -117 -205 -135.5t-403 -18.5v185q27 0 76 -2h75q203 0 283 110q51 72 49 133h-309q-188 0 -344 91.5t-242 254.5q-72 139 -72 297zM274 659 q0 -197 137.5 -326.5t333.5 -129.5h283v891q-31 16 -88 20q-27 3 -65 3q-19 0 -41 -1q-94 -2 -95 -2q-195 0 -330 -130t-135 -325z" />
<glyph unicode="H" horiz-adv-x="1275" d="M61 16v1620h211v-471q102 80 179 111q92 41 204 41q229 0 389 -165t160 -396v-740h-203v729q0 160 -102 270.5t-262 110.5t-262.5 -109.5t-102.5 -271.5v-729h-211z" />
<glyph unicode="I" horiz-adv-x="378" d="M61 16v1301h211v-1301h-211zM68 1530q0 41 29.5 70.5t70.5 29.5q43 0 72.5 -29.5t29.5 -70.5q0 -43 -29.5 -73t-72.5 -30q-41 0 -70.5 30t-29.5 73z" />
<glyph unicode="J" horiz-adv-x="813" d="M61 -225v-185q276 0 406 19q123 18 203 135q74 109 73 244v1310h-198v-1282q2 -61 -49 -133q-79 -110 -279 -110h-4h-76q-49 2 -76 2zM547 1530q0 41 29.5 70.5t72.5 29.5q41 0 71 -29.5t30 -70.5q0 -43 -30 -73t-71 -30q-43 0 -72.5 30t-29.5 73z" />
<glyph unicode="K" horiz-adv-x="915" d="M45 16h211v594l369 -594h235l-428 680l428 621h-235l-369 -533v852h-211v-1620z" />
<glyph unicode="L" horiz-adv-x="352" d="M61 16v1620h211v-1620h-211z" />
<glyph unicode="M" horiz-adv-x="2228" d="M61 16v1282h211v-133q102 80 179 111q92 41 204 41q143 0 264 -68.5t195 -183.5q84 113 214 182.5t265 69.5q231 0 391 -165t160 -396v-740h-205v729q0 160 -102 270.5t-260 110.5q-160 0 -266.5 -108.5t-106.5 -265.5v-736h-203v729q0 160 -102 270.5t-262 110.5 t-262.5 -109.5t-102.5 -271.5v-729h-211z" />
<glyph unicode="N" horiz-adv-x="1290" d="M61 16v1282h211v-133q102 80 179 111q92 41 204 41q229 0 389 -165t160 -396v-740h-203v729q0 160 -102 270.5t-262 110.5t-262.5 -109.5t-102.5 -271.5v-729h-211z" />
<glyph unicode="O" horiz-adv-x="1519" d="M61 655q0 276 205 469t488 193q285 0 491.5 -192.5t206.5 -469.5q0 -276 -206.5 -466.5t-491.5 -190.5q-283 0 -488 190.5t-205 466.5zM260 655q2 -197 147.5 -329.5t346.5 -132.5q203 0 349 133t148 329v5q0 194 -146 329q-148 137 -351 137t-348.5 -137t-145.5 -334z " />
<glyph unicode="P" horiz-adv-x="1302" d="M61 -410h199v426h311q188 0 344 91.5t240 254.5q74 139 74 291q0 274 -195.5 459.5t-472.5 185.5h-500v-1708zM260 203v891h291q197 0 330 -124t133 -317q0 -195 -136.5 -322.5t-332.5 -127.5h-285z" />
<glyph unicode="Q" horiz-adv-x="1316" d="M61 653q0 274 196 459.5t472 185.5h500v-1708h-201v426h-309q-188 0 -344 91.5t-242 254.5q-72 139 -72 291zM274 653q0 -195 137.5 -322.5t333.5 -127.5h283v891h-289q-197 0 -331 -124t-134 -317z" />
<glyph unicode="R" horiz-adv-x="962" d="M4 16v1282h211v-133q102 80 178 111q92 41 205 41q260 0 426 -205l-180 -98q-104 112 -264 112q-158 0 -261.5 -109.5t-103.5 -271.5v-729h-211z" />
<glyph unicode="S" horiz-adv-x="1339" d="M35 944q0 145 103.5 249.5t250.5 104.5h891v-208h-885q-63 0 -108 -43t-45 -105q0 -63 45 -106t108 -43h541q233 0 344 -195q51 -90 51 -192q0 -172 -117.5 -281t-287.5 -109h-877v213h875q76 0 131 52.5t55 128.5t-54.5 128t-131.5 52h-531q-207 0 -309 174 q-49 84 -49 180z" />
<glyph unicode="T" horiz-adv-x="729" d="M31 416v1222h202v-340h445v-192h-445v-633q0 -29 17.5 -84t34.5 -78q79 -112 278 -112h4q27 0 76 2t76 2v-187q-12 0 -131 -2q-44 -1 -80 -1t-64 1q-78 6 -133 23q-125 35 -202.5 141.5t-77.5 237.5z" />
<glyph unicode="U" horiz-adv-x="1292" d="M61 561v735h205v-725q0 -160 102.5 -270.5t260.5 -110.5q160 0 263 110t103 269v727h209v-1280h-209v136q-102 -80 -178 -111q-92 -41 -205 -41q-231 0 -391 165t-160 396z" />
<glyph unicode="V" horiz-adv-x="1218" d="M43 1296h205l362 -999l365 999h203l-490 -1280h-156z" />
<glyph unicode="W" horiz-adv-x="1691" d="M63 451q0 -186 123 -315.5t310 -129.5q209 0 338 166q131 -166 342 -166q184 0 309 130t125 317v845h-209v-860q0 -106 -62.5 -177t-169.5 -71q-102 0 -166.5 73t-64.5 175v860h-205v-860q0 -104 -65.5 -176t-169.5 -72q-156 0 -205 132q-27 72 -27 258v718h-203v-847z " />
<glyph unicode="X" horiz-adv-x="1132" d="M47 16l395 639l-395 641h238l276 -448l279 448h237l-395 -641l395 -639h-241l-275 445l-272 -445h-242z" />
<glyph unicode="Y" horiz-adv-x="1110" d="M37 1296h246l276 -424l277 424h247l-417 -639v-641h-211v641z" />
<glyph unicode="Z" horiz-adv-x="1112" d="M37 16l668 1071h-668v209h1032l-666 -1067h666v-213h-1032z" />
<glyph unicode="[" horiz-adv-x="634" d="M-6 -229v2113h686v-184h-485v-1743h485v-186h-686z" />
<glyph unicode="\" horiz-adv-x="724" d="M39 1296h166l489 -1280h-166z" />
<glyph unicode="]" horiz-adv-x="829" d="M61 -43v-186h689v2113h-689v-184h486v-1743h-486z" />
<glyph unicode="^" horiz-adv-x="948" d="M459 1409l184 227h188l185 -227h-193l-86 109l-86 -109h-192z" />
<glyph unicode="_" horiz-adv-x="995" d="M68 16v211h809v-211h-809z" />
<glyph unicode="`" horiz-adv-x="241" d="M8 1636h189l61 -227h-168z" />
<glyph unicode="a" horiz-adv-x="1316" d="M61 657q0 156 72 297q86 164 241.5 254t344.5 90h510v-1282h-199v1098h-285q-197 0 -334 -131t-137 -326t135.5 -324.5t329.5 -129.5q117 0 215 55v-207q-129 -43 -225 -43q-276 0 -472 187.5t-196 461.5z" />
<glyph unicode="b" horiz-adv-x="1302" d="M61 16v1620h199v-338h311q188 0 344 -90t240 -254q74 -141 74 -297q0 -274 -195.5 -457.5t-472.5 -183.5h-500zM260 223h291q197 0 330 121t133 313q0 195 -136.5 326t-332.5 131h-285v-891z" />
<glyph unicode="c" horiz-adv-x="1239" d="M217.5 1126.5q194.5 190.5 478.5 190.5q350 0 541 -268l-162 -111q-174 188 -387 188q-190 0 -327.5 -139t-137.5 -332q0 -190 137.5 -326t327.5 -136q145 0 263 77.5t167 210.5l139 -133q-186 -350 -540 -350q-293 0 -490 180q-204 185 -204 474q0 284 194.5 474.5z" />
<glyph unicode="d" horiz-adv-x="1310" d="M61 657q0 -274 195 -457.5t473 -183.5h500v1620h-199v-338h-311q-188 0 -344 -90t-242 -254q-72 -141 -72 -297zM274 657q0 195 137.5 326t333.5 131h285v-891h-291q-197 0 -331 121t-134 313z" />
<glyph unicode="e" horiz-adv-x="1476" d="M43 655q0 276 205 469t489 193q307 -2 482 -139q206 -161 206 -499q0 -44 -2 -89h-983v164h758l2 2q-57 370 -461 370h-2q-203 0 -349 -137q-144 -135 -144 -329v-5q2 -193 138 -327.5t329 -134.5q164 0 311 61q172 74 219 199l137 -134q-84 -158 -268 -241 q-168 -80 -373 -80q-287 0 -490.5 189.5t-203.5 467.5z" />
<glyph unicode="f" horiz-adv-x="651" d="M10 16h203v897h446v193h-446v78q0 27 17.5 83t33.5 79q81 110 279 110h4h76q49 -2 75 -2v184q-12 0 -131 4q-29 1 -54 1q-51 0 -89 -3q-78 -4 -133 -20q-125 -37 -203 -143.5t-78 -235.5v-1225z" />
<glyph unicode="g" horiz-adv-x="1308" d="M61 659q0 274 196 462t472 188q14 0 96 4q36 1 64.5 1t48.5 -1q61 -2 94 -15h197l-2 -1310q0 -135 -74 -244q-78 -117 -205 -135.5t-403 -18.5v185q27 0 76 -2h75q203 0 283 110q51 72 49 133h-309q-188 0 -344 91.5t-242 254.5q-72 139 -72 297zM274 659 q0 -197 137.5 -326.5t333.5 -129.5h283v891q-31 16 -88 20q-27 3 -65 3q-19 0 -41 -1q-94 -2 -95 -2q-195 0 -330 -130t-135 -325z" />
<glyph unicode="h" horiz-adv-x="1275" d="M61 16v1620h211v-471q102 80 179 111q92 41 204 41q229 0 389 -165t160 -396v-740h-203v729q0 160 -102 270.5t-262 110.5t-262.5 -109.5t-102.5 -271.5v-729h-211z" />
<glyph unicode="i" horiz-adv-x="352" d="M61 16v1301h211v-1301h-211zM68 1530q0 41 29.5 70.5t70.5 29.5q43 0 72.5 -29.5t29.5 -70.5q0 -43 -29.5 -73t-72.5 -30q-41 0 -70.5 30t-29.5 73z" />
<glyph unicode="j" horiz-adv-x="825" d="M61 -225v-185q276 0 406 19q123 18 203 135q74 109 73 244v1310h-198v-1282q2 -61 -49 -133q-79 -110 -279 -110h-4h-76q-49 2 -76 2zM547 1530q0 41 29.5 70.5t72.5 29.5q41 0 71 -29.5t30 -70.5q0 -43 -30 -73t-71 -30q-43 0 -72.5 30t-29.5 73z" />
<glyph unicode="k" horiz-adv-x="915" d="M45 16h211v594l369 -594h235l-428 680l428 621h-235l-369 -533v852h-211v-1620z" />
<glyph unicode="l" horiz-adv-x="352" d="M61 16v1620h211v-1620h-211z" />
<glyph unicode="m" horiz-adv-x="2215" d="M61 16v1282h211v-133q102 80 179 111q92 41 204 41q143 0 264 -68.5t195 -183.5q84 113 214 182.5t265 69.5q231 0 391 -165t160 -396v-740h-205v729q0 160 -102 270.5t-260 110.5q-160 0 -266.5 -108.5t-106.5 -265.5v-736h-203v729q0 160 -102 270.5t-262 110.5 t-262.5 -109.5t-102.5 -271.5v-729h-211z" />
<glyph unicode="n" horiz-adv-x="1275" d="M61 16v1282h211v-133q102 80 179 111q92 41 204 41q229 0 389 -165t160 -396v-740h-203v729q0 160 -102 270.5t-262 110.5t-262.5 -109.5t-102.5 -271.5v-729h-211z" />
<glyph unicode="o" horiz-adv-x="1519" d="M61 655q0 276 205 469t488 193q285 0 491.5 -192.5t206.5 -469.5q0 -276 -206.5 -466.5t-491.5 -190.5q-283 0 -488 190.5t-205 466.5zM260 655q2 -197 147.5 -329.5t346.5 -132.5q203 0 349 133t148 329v5q0 194 -146 329q-148 137 -351 137t-348.5 -137t-145.5 -334z " />
<glyph unicode="p" horiz-adv-x="1302" d="M61 -410h199v426h311q188 0 344 91.5t240 254.5q74 139 74 291q0 274 -195.5 459.5t-472.5 185.5h-500v-1708zM260 203v891h291q197 0 330 -124t133 -317q0 -195 -136.5 -322.5t-332.5 -127.5h-285z" />
<glyph unicode="q" horiz-adv-x="1316" d="M61 653q0 274 196 459.5t472 185.5h500v-1708h-201v426h-309q-188 0 -344 91.5t-242 254.5q-72 139 -72 291zM274 653q0 -195 137.5 -322.5t333.5 -127.5h283v891h-289q-197 0 -331 -124t-134 -317z" />
<glyph unicode="r" horiz-adv-x="962" d="M4 16v1282h211v-133q102 80 178 111q92 41 205 41q260 0 426 -205l-180 -98q-104 112 -264 112q-158 0 -261.5 -109.5t-103.5 -271.5v-729h-211z" />
<glyph unicode="s" horiz-adv-x="1339" d="M35 944q0 145 103.5 249.5t250.5 104.5h891v-208h-885q-63 0 -108 -43t-45 -105q0 -63 45 -106t108 -43h541q233 0 344 -195q51 -90 51 -192q0 -172 -117.5 -281t-287.5 -109h-877v213h875q76 0 131 52.5t55 128.5t-54.5 128t-131.5 52h-531q-207 0 -309 174 q-49 84 -49 180z" />
<glyph unicode="t" horiz-adv-x="729" d="M31 416v1222h202v-340h445v-192h-445v-633q0 -29 17.5 -84t34.5 -78q79 -112 278 -112h4q27 0 76 2t76 2v-187q-12 0 -131 -2q-44 -1 -80 -1t-64 1q-78 6 -133 23q-125 35 -202.5 141.5t-77.5 237.5z" />
<glyph unicode="u" horiz-adv-x="1292" d="M61 561v735h205v-725q0 -160 102.5 -270.5t260.5 -110.5q160 0 263 110t103 269v727h209v-1280h-209v136q-102 -80 -178 -111q-92 -41 -205 -41q-231 0 -391 165t-160 396z" />
<glyph unicode="v" horiz-adv-x="1210" d="M43 1296h205l362 -999l365 999h203l-490 -1280h-156z" />
<glyph unicode="w" horiz-adv-x="1691" d="M63 451q0 -186 123 -315.5t310 -129.5q209 0 338 166q131 -166 342 -166q184 0 309 130t125 317v845h-209v-860q0 -106 -62.5 -177t-169.5 -71q-102 0 -166.5 73t-64.5 175v860h-205v-860q0 -104 -65.5 -176t-169.5 -72q-156 0 -205 132q-27 72 -27 258v718h-203v-847z " />
<glyph unicode="x" horiz-adv-x="1132" d="M47 16l395 639l-395 641h238l276 -448l279 448h237l-395 -641l395 -639h-241l-275 445l-272 -445h-242z" />
<glyph unicode="y" horiz-adv-x="1110" d="M37 1296h246l276 -424l277 424h247l-417 -639v-641h-211v641z" />
<glyph unicode="z" horiz-adv-x="1124" d="M37 16l668 1071h-668v209h1032l-666 -1067h666v-213h-1032z" />
<glyph unicode="{" horiz-adv-x="634" d="M-6 170v1317q0 129 78 235.5t200 143.5q57 16 136 20q55 4 141 2q121 -4 131 -4v-184q-25 0 -74 2h-76q-203 0 -282 -111q-16 -23 -34.5 -79t-18.5 -82v-1203q0 -29 18 -84t35 -77q80 -113 282 -113q25 0 75 2t75 2v-186q-10 0 -131 -2q-86 -2 -141 0q-78 6 -136 22 q-123 35 -200.5 141.5t-77.5 237.5z" />
<glyph unicode="|" horiz-adv-x="534" d="M164 16v1620h211v-1620h-211z" />
<glyph unicode="}" horiz-adv-x="829" d="M61 -43v-186q12 0 132 -2q88 -2 143 0q78 6 133 22q125 35 203 141.5t78 237.5v1317q0 129 -78 235.5t-203 143.5q-55 16 -133 20q-55 4 -143 2q-119 -4 -132 -4v-184q27 0 76 2h76q203 0 283 -111q16 -23 33.5 -79t17.5 -82v-1203q0 -29 -17.5 -84t-33.5 -77 q-80 -113 -283 -113q-27 0 -76 2t-76 2z" />
<glyph unicode="~" horiz-adv-x="935" d="M315 1348v170q195 129 205 129q51 0 138 -68t139 -68q87 0 204 129v-170q-195 -127 -204 -127q-51 0 -138.5 67t-138.5 67q-88 0 -205 -129z" />
<glyph unicode="&#xa0;" />
<glyph unicode="&#xa1;" />
<glyph unicode="&#xa2;" />
<glyph unicode="&#xa3;" />
<glyph unicode="&#xa4;" />
<glyph unicode="&#xa5;" />
<glyph unicode="&#xa6;" />
<glyph unicode="&#xa7;" />
<glyph unicode="&#xa8;" />
<glyph unicode="&#xa9;" />
<glyph unicode="&#xaa;" />
<glyph unicode="&#xab;" />
<glyph unicode="&#xac;" />
<glyph unicode="&#xad;" horiz-adv-x="1009" d="M78 721v211h809v-211h-809z" />
<glyph unicode="&#xae;" />
<glyph unicode="&#xaf;" />
<glyph unicode="&#xb0;" />
<glyph unicode="&#xb1;" />
<glyph unicode="&#xb2;" />
<glyph unicode="&#xb3;" />
<glyph unicode="&#xb4;" horiz-adv-x="268" d="M-39 1260v272h254l-102 -272h-152z" />
<glyph unicode="&#xb5;" />
<glyph unicode="&#xb6;" />
<glyph unicode="&#xb7;" />
<glyph unicode="&#xb8;" />
<glyph unicode="&#xb9;" />
<glyph unicode="&#xba;" />
<glyph unicode="&#xbb;" />
<glyph unicode="&#xbc;" />
<glyph unicode="&#xbd;" />
<glyph unicode="&#xbe;" />
<glyph unicode="&#xbf;" />
<glyph unicode="&#xc0;" horiz-adv-x="1310" d="M61 657q0 156 72 297q86 164 241.5 254t344.5 90h510v-1282h-199v1098h-285q-197 0 -334 -131t-137 -326t135.5 -324.5t329.5 -129.5q117 0 215 55v-207q-129 -43 -225 -43q-276 0 -472 187.5t-196 461.5zM602 1636h189l61 -227h-168z" />
<glyph unicode="&#xc1;" horiz-adv-x="1310" d="M61 657q0 156 72 297q86 164 241.5 254t344.5 90h510v-1282h-199v1098h-285q-197 0 -334 -131t-137 -326t135.5 -324.5t329.5 -129.5q117 0 215 55v-207q-129 -43 -225 -43q-276 0 -472 187.5t-196 461.5zM602 1409h168l82 227h-188z" />
<glyph unicode="&#xc2;" horiz-adv-x="1316" d="M61 657q0 156 72 297q86 164 241.5 254t344.5 90h510v-1282h-199v1098h-285q-197 0 -334 -131t-137 -326t135.5 -324.5t329.5 -129.5q117 0 215 55v-207q-129 -43 -225 -43q-276 0 -472 187.5t-196 461.5zM459 1409l184 227h188l185 -227h-193l-86 109l-86 -109h-192z " />
<glyph unicode="&#xc3;" horiz-adv-x="1331" d="M61 657q0 156 72 297q86 164 241.5 254t344.5 90h510v-1282h-199v1098h-285q-197 0 -334 -131t-137 -326t135.5 -324.5t329.5 -129.5q117 0 215 55v-207q-129 -43 -225 -43q-276 0 -472 187.5t-196 461.5zM315 1348v170q195 129 205 129q51 0 138 -68t139 -68 q87 0 204 129v-170q-195 -127 -204 -127q-51 0 -138.5 67t-138.5 67q-88 0 -205 -129z" />
<glyph unicode="&#xc4;" horiz-adv-x="1310" d="M61 657q0 156 72 297q86 164 241.5 254t344.5 90h510v-1282h-199v1098h-285q-197 0 -334 -131t-137 -326t135.5 -324.5t329.5 -129.5q117 0 215 55v-207q-129 -43 -225 -43q-276 0 -472 187.5t-196 461.5zM352 1511q0 41 32 71t75 30q41 0 72.5 -30t31.5 -71t-31.5 -71.5 t-72.5 -30.5q-43 0 -75 30.5t-32 71.5zM911 1511q0 41 32 71t73 30q43 0 74.5 -30t31.5 -71t-31.5 -71.5t-74.5 -30.5q-41 0 -73 30.5t-32 71.5z" />
<glyph unicode="&#xc5;" horiz-adv-x="1335" d="M61 657q0 156 72 297q86 164 241.5 254t344.5 90h510v-1282h-199v1098h-285q-197 0 -334 -131t-137 -326t135.5 -324.5t329.5 -129.5q117 0 215 55v-207q-129 -43 -225 -43q-276 0 -472 187.5t-196 461.5zM583 1542q0 53 41 92t96 39q53 0 94.5 -39t41.5 -92 q0 -55 -41 -94t-95 -39q-55 0 -96 39t-41 94zM628 1542q0 -37 28 -62.5t64 -25.5q35 0 63 25.5t28 62.5q0 35 -28 61.5t-63 26.5q-37 0 -64.5 -26.5t-27.5 -61.5z" />
<glyph unicode="&#xc6;" horiz-adv-x="2066" d="M45 657q0 156 72 297q86 164 240.5 254t344.5 90h476q78 18 153 19q309 -2 484 -139q207 -162 206 -502q0 -41 -4 -86h-809v-387q47 -10 97 -10q164 0 311 61q172 74 219 199l139 -134q-84 -158 -268 -241q-168 -80 -373 -80q-84 0 -164 18h-157v58q-39 18 -74 41v-64 q-131 -43 -225 -43q-276 0 -472 187.5t-196 461.5zM258 657q0 -195 134 -324.5t329 -129.5q51 0 96 10q-180 184 -178 442q0 264 199 459h-111q-197 0 -333 -130t-136 -327zM838 655q2 -217 174 -358v711q-174 -145 -174 -353zM1208 756h588q-59 371 -465 370 q-63 0 -123 -14v-356z" />
<glyph unicode="&#xc7;" horiz-adv-x="1241" d="M23 655q0 281 194.5 471.5t478.5 190.5q350 0 541 -268l-162 -111q-174 188 -387 188q-190 0 -327.5 -139t-137.5 -332q0 -190 137.5 -326t327.5 -136q35 -1 156 24q201 68 274 264l139 -133q-123 -229 -311 -307q-57 -96 -137 -98q-2 4 -6 8q4 10 7 25.5t3 29.5 q-47 -8 -96 -8q-293 0 -490 180q-205 186 -204 477z" />
<glyph unicode="&#xc8;" horiz-adv-x="1476" d="M43 655q0 276 205 469t489 193q307 -2 482 -139q207 -162 206 -502q0 -41 -2 -86h-983v164h758l2 2q-57 371 -463 370q-203 0 -349 -137t-144 -334q2 -193 138 -327.5t329 -134.5q164 0 311 61q172 74 219 199l137 -134q-84 -158 -268 -241q-168 -80 -373 -80 q-287 0 -490.5 189.5t-203.5 467.5zM602 1636h189l61 -227h-168z" />
<glyph unicode="&#xc9;" horiz-adv-x="1476" d="M43 655q0 276 205 469t489 193q307 -2 482 -139q207 -162 206 -502q0 -41 -2 -86h-983v164h758l2 2q-57 371 -463 370q-203 0 -349 -137t-144 -334q2 -193 138 -327.5t329 -134.5q164 0 311 61q172 74 219 199l137 -134q-84 -158 -268 -241q-168 -80 -373 -80 q-287 0 -490.5 189.5t-203.5 467.5zM602 1409h168l82 227h-188z" />
<glyph unicode="&#xca;" horiz-adv-x="1476" d="M43 655q0 276 205 469t489 193q307 -2 482 -139q207 -162 206 -502q0 -41 -2 -86h-983v164h758l2 2q-57 371 -463 370q-203 0 -349 -137t-144 -334q2 -193 138 -327.5t329 -134.5q164 0 311 61q172 74 219 199l137 -134q-84 -158 -268 -241q-168 -80 -373 -80 q-287 0 -490.5 189.5t-203.5 467.5zM459 1409l184 227h188l185 -227h-193l-86 109l-86 -109h-192z" />
<glyph unicode="&#xcb;" horiz-adv-x="1474" d="M43 655q0 276 205 469t489 193q307 -2 482 -139q207 -162 206 -502q0 -41 -2 -86h-983v164h758l2 2q-57 371 -463 370q-203 0 -349 -137t-144 -334q2 -193 138 -327.5t329 -134.5q164 0 311 61q172 74 219 199l137 -134q-84 -158 -268 -241q-168 -80 -373 -80 q-287 0 -490.5 189.5t-203.5 467.5zM352 1511q0 41 32 71t75 30q41 0 72.5 -30t31.5 -71t-31.5 -71.5t-72.5 -30.5q-43 0 -75 30.5t-32 71.5zM911 1511q0 41 32 71t73 30q43 0 74.5 -30t31.5 -71t-31.5 -71.5t-74.5 -30.5q-41 0 -73 30.5t-32 71.5z" />
<glyph unicode="&#xcc;" horiz-adv-x="378" d="M8 1636h189l61 -227h-168zM61 16v1301h211v-1301h-211z" />
<glyph unicode="&#xcd;" horiz-adv-x="325" d="M8 16h209v1301h-209v-1301zM20 1409h170l82 227h-190z" />
<glyph unicode="&#xce;" horiz-adv-x="423" d="M-102 1409l184 227h188l185 -227h-193l-86 109l-86 -109h-192zM61 16v1301h211v-1301h-211z" />
<glyph unicode="&#xcf;" horiz-adv-x="507" d="M-225 1511q0 41 31.5 71t74.5 30q41 0 73 -30t32 -71t-32 -71.5t-73 -30.5q-43 0 -74.5 30.5t-31.5 71.5zM61 16v1301h211v-1301h-211zM334 1511q0 41 31.5 71t72.5 30q43 0 75 -30t32 -71t-32 -71.5t-75 -30.5q-41 0 -72.5 30.5t-31.5 71.5z" />
<glyph unicode="&#xd0;" />
<glyph unicode="&#xd1;" horiz-adv-x="1275" d="M61 16v1282h211v-133q102 80 179 111q92 41 204 41q229 0 389 -165t160 -396v-740h-203v729q0 160 -102 270.5t-262 110.5t-262.5 -109.5t-102.5 -271.5v-729h-211zM315 1348v170q195 129 205 129q51 0 138 -68t139 -68q87 0 204 129v-170q-195 -127 -204 -127 q-51 0 -138.5 67t-138.5 67q-88 0 -205 -129z" />
<glyph unicode="&#xd2;" horiz-adv-x="1507" d="M61 655q0 276 205 469t488 193q285 0 491.5 -192.5t206.5 -469.5q0 -276 -206.5 -466.5t-491.5 -190.5q-283 0 -488 190.5t-205 466.5zM260 655q2 -197 147.5 -329.5t346.5 -132.5q203 0 349 133t148 329q2 197 -146 334t-351 137t-348.5 -137t-145.5 -334zM602 1636h189 l61 -227h-168z" />
<glyph unicode="&#xd3;" horiz-adv-x="1507" d="M61 655q0 276 205 469t488 193q285 0 491.5 -192.5t206.5 -469.5q0 -276 -206.5 -466.5t-491.5 -190.5q-283 0 -488 190.5t-205 466.5zM260 655q2 -197 147.5 -329.5t346.5 -132.5q203 0 349 133t148 329q2 197 -146 334t-351 137t-348.5 -137t-145.5 -334zM602 1409h168 l82 227h-188z" />
<glyph unicode="&#xd4;" horiz-adv-x="1529" d="M61 655q0 276 205 469t488 193q285 0 491.5 -192.5t206.5 -469.5q0 -276 -206.5 -466.5t-491.5 -190.5q-283 0 -488 190.5t-205 466.5zM260 655q2 -197 147.5 -329.5t346.5 -132.5q203 0 349 133t148 329q2 197 -146 334t-351 137t-348.5 -137t-145.5 -334zM459 1409 l184 227h188l185 -227h-193l-86 109l-86 -109h-192z" />
<glyph unicode="&#xd5;" horiz-adv-x="1525" d="M61 655q0 276 205 469t488 193q285 0 491.5 -192.5t206.5 -469.5q0 -276 -206.5 -466.5t-491.5 -190.5q-283 0 -488 190.5t-205 466.5zM260 655q2 -197 147.5 -329.5t346.5 -132.5q203 0 349 133t148 329q2 197 -146 334t-351 137t-348.5 -137t-145.5 -334zM417 1348v170 q195 129 205 129q51 0 138 -68t139 -68q87 0 204 129v-170q-195 -127 -204 -127q-51 0 -138.5 67t-138.5 67q-88 0 -205 -129z" />
<glyph unicode="&#xd6;" horiz-adv-x="1521" d="M61 655q0 276 205 469t488 193q285 0 491.5 -192.5t206.5 -469.5q0 -276 -206.5 -466.5t-491.5 -190.5q-283 0 -488 190.5t-205 466.5zM260 655q2 -197 147.5 -329.5t346.5 -132.5q203 0 349 133t148 329q2 197 -146 334t-351 137t-348.5 -137t-145.5 -334zM352 1511 q0 41 32 71t75 30q41 0 72.5 -30t31.5 -71t-31.5 -71.5t-72.5 -30.5q-43 0 -75 30.5t-32 71.5zM911 1511q0 41 32 71t73 30q43 0 74.5 -30t31.5 -71t-31.5 -71.5t-74.5 -30.5q-41 0 -73 30.5t-32 71.5z" />
<glyph unicode="&#xd7;" />
<glyph unicode="&#xd8;" horiz-adv-x="1519" d="M43 16l186 209q-168 184 -168 430q0 276 205 469t488 193q197 0 366 -100l88 100h228l-181 -203q197 -190 197 -459q0 -276 -207 -466.5t-491 -190.5q-215 0 -396 117l-88 -99h-227zM260 655q2 -158 102 -280l625 696q-109 55 -233 55q-203 0 -348.5 -137t-145.5 -334z M492 264q121 -72 262 -71q203 0 349 133t148 329q0 180 -127 314z" />
<glyph unicode="&#xd9;" horiz-adv-x="1286" d="M61 561v735h205v-725q0 -160 102.5 -270.5t260.5 -110.5q160 0 263 110t103 269v727h209v-1280h-209v136q-102 -80 -178 -111q-92 -41 -205 -41q-231 0 -391 165t-160 396zM479 1636h189l61 -227h-168z" />
<glyph unicode="&#xda;" horiz-adv-x="1286" d="M61 561v735h205v-725q0 -160 102.5 -270.5t260.5 -110.5q160 0 263 110t103 269v727h209v-1280h-209v136q-102 -80 -178 -111q-92 -41 -205 -41q-231 0 -391 165t-160 396zM500 1409h168l82 227h-189z" />
<glyph unicode="&#xdb;" horiz-adv-x="1290" d="M61 561v735h205v-725q0 -160 102.5 -270.5t260.5 -110.5q160 0 263 110t103 269v727h209v-1280h-209v136q-102 -80 -178 -111q-92 -41 -205 -41q-231 0 -391 165t-160 396zM357 1409l184 227h188l185 -227h-193l-86 109l-86 -109h-192z" />
<glyph unicode="&#xdc;" horiz-adv-x="1304" d="M61 561v735h205v-725q0 -160 102.5 -270.5t260.5 -110.5q160 0 263 110t103 269v727h209v-1280h-209v136q-102 -80 -178 -111q-92 -41 -205 -41q-231 0 -391 165t-160 396zM289 1511q0 41 32 71t75 30q41 0 72.5 -30t31.5 -71t-31.5 -71.5t-72.5 -30.5q-43 0 -75 30.5 t-32 71.5zM848 1511q0 41 32 71t73 30q43 0 74.5 -30t31.5 -71t-31.5 -71.5t-74.5 -30.5q-41 0 -73 30.5t-32 71.5z" />
<glyph unicode="&#xdd;" horiz-adv-x="1122" d="M37 1296h246l276 -424l277 424h247l-417 -639v-641h-211v641zM418 1409h168l82 227h-189z" />
<glyph unicode="&#xde;" horiz-adv-x="1083" d="M35 98v1456h209v-327h395q236 0 346 -193q49 -86 49 -178q0 -164 -110 -264q-61 -55 -82 -66q-68 -37 -178 -37h-420v-391h-209zM244 700h383q78 0 131 43t53 117t-52 117t-132 43h-383v-320z" />
<glyph unicode="&#xdf;" horiz-adv-x="1402" d="M61 16v1620h850q238 0 349 -192q49 -86 49 -178q0 -164 -113 -265q129 -190 127 -448q-2 -537 -405 -537h-482v213h479q74 0 125 76q59 90 62 250q2 225 -164 344h-487v211h450q78 0 131 43t53 117t-52 117t-132 43h-629v-1414h-211z" />
<glyph unicode="&#xe0;" horiz-adv-x="1310" d="M61 657q0 156 72 297q86 164 241.5 254t344.5 90h510v-1282h-199v1098h-285q-197 0 -334 -131t-137 -326t135.5 -324.5t329.5 -129.5q117 0 215 55v-207q-129 -43 -225 -43q-276 0 -472 187.5t-196 461.5zM602 1636h189l61 -227h-168z" />
<glyph unicode="&#xe1;" horiz-adv-x="1310" d="M61 657q0 156 72 297q86 164 241.5 254t344.5 90h510v-1282h-199v1098h-285q-197 0 -334 -131t-137 -326t135.5 -324.5t329.5 -129.5q117 0 215 55v-207q-129 -43 -225 -43q-276 0 -472 187.5t-196 461.5zM602 1409h168l82 227h-188z" />
<glyph unicode="&#xe2;" horiz-adv-x="1316" d="M61 657q0 156 72 297q86 164 241.5 254t344.5 90h510v-1282h-199v1098h-285q-197 0 -334 -131t-137 -326t135.5 -324.5t329.5 -129.5q117 0 215 55v-207q-129 -43 -225 -43q-276 0 -472 187.5t-196 461.5zM459 1409l184 227h188l185 -227h-193l-86 109l-86 -109h-192z " />
<glyph unicode="&#xe3;" horiz-adv-x="1331" d="M61 657q0 156 72 297q86 164 241.5 254t344.5 90h510v-1282h-199v1098h-285q-197 0 -334 -131t-137 -326t135.5 -324.5t329.5 -129.5q117 0 215 55v-207q-129 -43 -225 -43q-276 0 -472 187.5t-196 461.5zM315 1348v170q195 129 205 129q51 0 138 -68t139 -68 q87 0 204 129v-170q-195 -127 -204 -127q-51 0 -138.5 67t-138.5 67q-88 0 -205 -129z" />
<glyph unicode="&#xe4;" horiz-adv-x="1310" d="M61 657q0 156 72 297q86 164 241.5 254t344.5 90h510v-1282h-199v1098h-285q-197 0 -334 -131t-137 -326t135.5 -324.5t329.5 -129.5q117 0 215 55v-207q-129 -43 -225 -43q-276 0 -472 187.5t-196 461.5zM352 1511q0 41 32 71t75 30q41 0 72.5 -30t31.5 -71t-31.5 -71.5 t-72.5 -30.5q-43 0 -75 30.5t-32 71.5zM911 1511q0 41 32 71t73 30q43 0 74.5 -30t31.5 -71t-31.5 -71.5t-74.5 -30.5q-41 0 -73 30.5t-32 71.5z" />
<glyph unicode="&#xe5;" horiz-adv-x="1335" d="M61 657q0 156 72 297q86 164 241.5 254t344.5 90h510v-1282h-199v1098h-285q-197 0 -334 -131t-137 -326t135.5 -324.5t329.5 -129.5q117 0 215 55v-207q-129 -43 -225 -43q-276 0 -472 187.5t-196 461.5zM583 1542q0 53 41 92t96 39q53 0 94.5 -39t41.5 -92 q0 -55 -41 -94t-95 -39q-55 0 -96 39t-41 94zM628 1542q0 -37 28 -62.5t64 -25.5q35 0 63 25.5t28 62.5q0 35 -28 61.5t-63 26.5q-37 0 -64.5 -26.5t-27.5 -61.5z" />
<glyph unicode="&#xe6;" horiz-adv-x="2066" d="M45 657q0 156 72 297q86 164 240.5 254t344.5 90h476q78 18 153 19q309 -2 484 -139q207 -162 206 -502q0 -41 -4 -86h-809v-387q47 -10 97 -10q164 0 311 61q172 74 219 199l139 -134q-84 -158 -268 -241q-168 -80 -373 -80q-84 0 -164 18h-157v58q-39 18 -74 41v-64 q-131 -43 -225 -43q-276 0 -472 187.5t-196 461.5zM258 657q0 -195 134 -324.5t329 -129.5q51 0 96 10q-180 184 -178 442q0 264 199 459h-111q-197 0 -333 -130t-136 -327zM838 655q2 -217 174 -358v711q-174 -145 -174 -353zM1208 756h588q-59 371 -465 370 q-63 0 -123 -14v-356z" />
<glyph unicode="&#xe7;" horiz-adv-x="1241" d="M23 655q0 281 194.5 471.5t478.5 190.5q350 0 541 -268l-162 -111q-174 188 -387 188q-190 0 -327.5 -139t-137.5 -332q0 -190 137.5 -326t327.5 -136q35 -1 156 24q201 68 274 264l139 -133q-123 -229 -311 -307q-57 -96 -137 -98q-2 4 -6 8q4 10 7 25.5t3 29.5 q-47 -8 -96 -8q-293 0 -490 180q-205 186 -204 477z" />
<glyph unicode="&#xe8;" horiz-adv-x="1476" d="M43 655q0 276 205 469t489 193q307 -2 482 -139q207 -162 206 -502q0 -41 -2 -86h-983v164h758l2 2q-57 371 -463 370q-203 0 -349 -137t-144 -334q2 -193 138 -327.5t329 -134.5q164 0 311 61q172 74 219 199l137 -134q-84 -158 -268 -241q-168 -80 -373 -80 q-287 0 -490.5 189.5t-203.5 467.5zM602 1636h189l61 -227h-168z" />
<glyph unicode="&#xe9;" horiz-adv-x="1476" d="M43 655q0 276 205 469t489 193q307 -2 482 -139q207 -162 206 -502q0 -41 -2 -86h-983v164h758l2 2q-57 371 -463 370q-203 0 -349 -137t-144 -334q2 -193 138 -327.5t329 -134.5q164 0 311 61q172 74 219 199l137 -134q-84 -158 -268 -241q-168 -80 -373 -80 q-287 0 -490.5 189.5t-203.5 467.5zM602 1409h168l82 227h-188z" />
<glyph unicode="&#xea;" horiz-adv-x="1476" d="M43 655q0 276 205 469t489 193q307 -2 482 -139q207 -162 206 -502q0 -41 -2 -86h-983v164h758l2 2q-57 371 -463 370q-203 0 -349 -137t-144 -334q2 -193 138 -327.5t329 -134.5q164 0 311 61q172 74 219 199l137 -134q-84 -158 -268 -241q-168 -80 -373 -80 q-287 0 -490.5 189.5t-203.5 467.5zM459 1409l184 227h188l185 -227h-193l-86 109l-86 -109h-192z" />
<glyph unicode="&#xeb;" horiz-adv-x="1474" d="M43 655q0 276 205 469t489 193q307 -2 482 -139q207 -162 206 -502q0 -41 -2 -86h-983v164h758l2 2q-57 371 -463 370q-203 0 -349 -137t-144 -334q2 -193 138 -327.5t329 -134.5q164 0 311 61q172 74 219 199l137 -134q-84 -158 -268 -241q-168 -80 -373 -80 q-287 0 -490.5 189.5t-203.5 467.5zM352 1511q0 41 32 71t75 30q41 0 72.5 -30t31.5 -71t-31.5 -71.5t-72.5 -30.5q-43 0 -75 30.5t-32 71.5zM911 1511q0 41 32 71t73 30q43 0 74.5 -30t31.5 -71t-31.5 -71.5t-74.5 -30.5q-41 0 -73 30.5t-32 71.5z" />
<glyph unicode="&#xec;" horiz-adv-x="378" d="M8 1636h189l61 -227h-168zM61 16v1301h211v-1301h-211z" />
<glyph unicode="&#xed;" horiz-adv-x="325" d="M8 16h209v1301h-209v-1301zM20 1409h170l82 227h-190z" />
<glyph unicode="&#xee;" horiz-adv-x="423" d="M-102 1409l184 227h188l185 -227h-193l-86 109l-86 -109h-192zM61 16v1301h211v-1301h-211z" />
<glyph unicode="&#xef;" horiz-adv-x="507" d="M-225 1511q0 41 31.5 71t74.5 30q41 0 73 -30t32 -71t-32 -71.5t-73 -30.5q-43 0 -74.5 30.5t-31.5 71.5zM61 16v1301h211v-1301h-211zM334 1511q0 41 31.5 71t72.5 30q43 0 75 -30t32 -71t-32 -71.5t-75 -30.5q-41 0 -72.5 30.5t-31.5 71.5z" />
<glyph unicode="&#xf0;" />
<glyph unicode="&#xf1;" horiz-adv-x="1275" d="M61 16v1282h211v-133q102 80 179 111q92 41 204 41q229 0 389 -165t160 -396v-740h-203v729q0 160 -102 270.5t-262 110.5t-262.5 -109.5t-102.5 -271.5v-729h-211zM315 1348v170q195 129 205 129q51 0 138 -68t139 -68q87 0 204 129v-170q-195 -127 -204 -127 q-51 0 -138.5 67t-138.5 67q-88 0 -205 -129z" />
<glyph unicode="&#xf2;" horiz-adv-x="1507" d="M61 655q0 276 205 469t488 193q285 0 491.5 -192.5t206.5 -469.5q0 -276 -206.5 -466.5t-491.5 -190.5q-283 0 -488 190.5t-205 466.5zM260 655q2 -197 147.5 -329.5t346.5 -132.5q203 0 349 133t148 329q2 197 -146 334t-351 137t-348.5 -137t-145.5 -334zM602 1636h189 l61 -227h-168z" />
<glyph unicode="&#xf3;" horiz-adv-x="1507" d="M61 655q0 276 205 469t488 193q285 0 491.5 -192.5t206.5 -469.5q0 -276 -206.5 -466.5t-491.5 -190.5q-283 0 -488 190.5t-205 466.5zM260 655q2 -197 147.5 -329.5t346.5 -132.5q203 0 349 133t148 329q2 197 -146 334t-351 137t-348.5 -137t-145.5 -334zM602 1409h168 l82 227h-188z" />
<glyph unicode="&#xf4;" horiz-adv-x="1529" d="M61 655q0 276 205 469t488 193q285 0 491.5 -192.5t206.5 -469.5q0 -276 -206.5 -466.5t-491.5 -190.5q-283 0 -488 190.5t-205 466.5zM260 655q2 -197 147.5 -329.5t346.5 -132.5q203 0 349 133t148 329q2 197 -146 334t-351 137t-348.5 -137t-145.5 -334zM459 1409 l184 227h188l185 -227h-193l-86 109l-86 -109h-192z" />
<glyph unicode="&#xf5;" horiz-adv-x="1525" d="M61 655q0 276 205 469t488 193q285 0 491.5 -192.5t206.5 -469.5q0 -276 -206.5 -466.5t-491.5 -190.5q-283 0 -488 190.5t-205 466.5zM260 655q2 -197 147.5 -329.5t346.5 -132.5q203 0 349 133t148 329q2 197 -146 334t-351 137t-348.5 -137t-145.5 -334zM417 1348v170 q195 129 205 129q51 0 138 -68t139 -68q87 0 204 129v-170q-195 -127 -204 -127q-51 0 -138.5 67t-138.5 67q-88 0 -205 -129z" />
<glyph unicode="&#xf6;" horiz-adv-x="1521" d="M61 655q0 276 205 469t488 193q285 0 491.5 -192.5t206.5 -469.5q0 -276 -206.5 -466.5t-491.5 -190.5q-283 0 -488 190.5t-205 466.5zM260 655q2 -197 147.5 -329.5t346.5 -132.5q203 0 349 133t148 329q2 197 -146 334t-351 137t-348.5 -137t-145.5 -334zM352 1511 q0 41 32 71t75 30q41 0 72.5 -30t31.5 -71t-31.5 -71.5t-72.5 -30.5q-43 0 -75 30.5t-32 71.5zM911 1511q0 41 32 71t73 30q43 0 74.5 -30t31.5 -71t-31.5 -71.5t-74.5 -30.5q-41 0 -73 30.5t-32 71.5z" />
<glyph unicode="&#xf7;" />
<glyph unicode="&#xf8;" horiz-adv-x="1519" d="M43 16l186 209q-168 184 -168 430q0 276 205 469t488 193q197 0 366 -100l88 100h228l-181 -203q197 -190 197 -459q0 -276 -207 -466.5t-491 -190.5q-215 0 -396 117l-88 -99h-227zM260 655q2 -158 102 -280l625 696q-109 55 -233 55q-203 0 -348.5 -137t-145.5 -334z M492 264q121 -72 262 -71q203 0 349 133t148 329q0 180 -127 314z" />
<glyph unicode="&#xf9;" horiz-adv-x="1286" d="M61 561v735h205v-725q0 -160 102.5 -270.5t260.5 -110.5q160 0 263 110t103 269v727h209v-1280h-209v136q-102 -80 -178 -111q-92 -41 -205 -41q-231 0 -391 165t-160 396zM479 1636h189l61 -227h-168z" />
<glyph unicode="&#xfa;" horiz-adv-x="1286" d="M61 561v735h205v-725q0 -160 102.5 -270.5t260.5 -110.5q160 0 263 110t103 269v727h209v-1280h-209v136q-102 -80 -178 -111q-92 -41 -205 -41q-231 0 -391 165t-160 396zM500 1409h168l82 227h-189z" />
<glyph unicode="&#xfb;" horiz-adv-x="1290" d="M61 561v735h205v-725q0 -160 102.5 -270.5t260.5 -110.5q160 0 263 110t103 269v727h209v-1280h-209v136q-102 -80 -178 -111q-92 -41 -205 -41q-231 0 -391 165t-160 396zM357 1409l184 227h188l185 -227h-193l-86 109l-86 -109h-192z" />
<glyph unicode="&#xfc;" horiz-adv-x="1304" d="M61 561v735h205v-725q0 -160 102.5 -270.5t260.5 -110.5q160 0 263 110t103 269v727h209v-1280h-209v136q-102 -80 -178 -111q-92 -41 -205 -41q-231 0 -391 165t-160 396zM289 1511q0 41 32 71t75 30q41 0 72.5 -30t31.5 -71t-31.5 -71.5t-72.5 -30.5q-43 0 -75 30.5 t-32 71.5zM848 1511q0 41 32 71t73 30q43 0 74.5 -30t31.5 -71t-31.5 -71.5t-74.5 -30.5q-41 0 -73 30.5t-32 71.5z" />
<glyph unicode="&#xfd;" horiz-adv-x="1122" d="M37 1296h246l276 -424l277 424h247l-417 -639v-641h-211v641zM418 1409h168l82 227h-189z" />
<glyph unicode="&#xfe;" horiz-adv-x="1083" d="M35 98v1456h209v-327h395q236 0 346 -193q49 -86 49 -178q0 -164 -110 -264q-61 -55 -82 -66q-68 -37 -178 -37h-420v-391h-209zM244 700h383q78 0 131 43t53 117t-52 117t-132 43h-383v-320z" />
<glyph unicode="&#xff;" horiz-adv-x="1402" d="M61 16v1620h850q238 0 349 -192q49 -86 49 -178q0 -164 -113 -265q129 -190 127 -448q-2 -537 -405 -537h-482v213h479q74 0 125 76q59 90 62 250q2 225 -164 344h-487v211h450q78 0 131 43t53 117t-52 117t-132 43h-629v-1414h-211z" />
<glyph unicode="&#x2000;" horiz-adv-x="944" />
<glyph unicode="&#x2001;" horiz-adv-x="1888" />
<glyph unicode="&#x2002;" horiz-adv-x="944" />
<glyph unicode="&#x2003;" horiz-adv-x="1888" />
<glyph unicode="&#x2004;" horiz-adv-x="629" />
<glyph unicode="&#x2005;" horiz-adv-x="472" />
<glyph unicode="&#x2006;" horiz-adv-x="314" />
<glyph unicode="&#x2007;" horiz-adv-x="314" />
<glyph unicode="&#x2008;" horiz-adv-x="236" />
<glyph unicode="&#x2009;" horiz-adv-x="377" />
<glyph unicode="&#x200a;" horiz-adv-x="104" />
<glyph unicode="&#x2010;" horiz-adv-x="1009" d="M78 721v211h809v-211h-809z" />
<glyph unicode="&#x2011;" horiz-adv-x="1009" d="M78 721v211h809v-211h-809z" />
<glyph unicode="&#x2012;" horiz-adv-x="1009" d="M78 721v211h809v-211h-809z" />
<glyph unicode="&#x2013;" horiz-adv-x="1224" d="M78 721v211h1024v-211h-1024z" />
<glyph unicode="&#x2014;" horiz-adv-x="2248" d="M78 721v211h2048v-211h-2048z" />
<glyph unicode="&#x2018;" horiz-adv-x="241" d="M8 1409h168l82 227h-188z" />
<glyph unicode="&#x2019;" horiz-adv-x="241" d="M8 1636h189l61 -227h-168z" />
<glyph unicode="&#x201c;" horiz-adv-x="315" d="M4 1636h150l-21 -227h-108zM188 1636h150l-21 -227h-108z" />
<glyph unicode="&#x201d;" horiz-adv-x="315" d="M4 1636h150l-21 -227h-108zM188 1636h150l-21 -227h-108z" />
<glyph unicode="&#x2026;" horiz-adv-x="917" d="M63 119q0 41 32 70.5t73 29.5q43 0 74.5 -29.5t31.5 -70.5t-31.5 -72t-74.5 -31q-41 0 -73 31t-32 72zM350 119q0 41 32 70.5t73 29.5q43 0 74.5 -29.5t31.5 -70.5t-31.5 -72t-74.5 -31q-41 0 -73 31t-32 72zM637 119q0 41 31.5 70.5t72.5 29.5q43 0 75 -29.5t32 -70.5 t-32 -72t-75 -31q-41 0 -72.5 31t-31.5 72z" />
<glyph unicode="&#x202f;" horiz-adv-x="377" />
<glyph unicode="&#x205f;" horiz-adv-x="472" />
<glyph unicode="&#xe000;" horiz-adv-x="1300" d="M0 0v1300h1300v-1300h-1300z" />
</font>
</defs>
</svg>
