<?xml version="1.0" standalone="no"?> <!DOCTYPE svg PUBLIC "-//W3C//DTD SVG 1.0//EN" "http://www.w3.org/TR/2001/REC-SVG-20010904/DTD/svg10.dtd" > <svg xmlns="http://www.w3.org/2000/svg" width="100%" height="100%">
<defs >
<font id="ge_ss_two_medium" horiz-adv-x="1201" ><font-face
    font-family="GE SS Two Medium"
    units-per-em="2048"
    panose-1="2 10 5 3 2 1 2 2 2 4"
    ascent="1690"
    descent="-492"
    alphabetic="0" />
<missing-glyph horiz-adv-x="1024" d="M129 0H897V1536H129V0ZM256 129V1409H768V129H256Z" />
<glyph unicode=" " glyph-name="space" horiz-adv-x="491" />
<glyph unicode="!" glyph-name="exclam" horiz-adv-x="471" d="M322 823V1333H74V823Q74 820 76 804T84 744T96 659L143 332H250L297 659L311 741Q322 798 322 823ZM322 0V260H74V0H322Z" />
<glyph unicode="&quot;" glyph-name="quotedbl" horiz-adv-x="514" d="M211 1405H43L98 848H160L211 1405ZM467 1405H299L354 848H416L467 1405Z" />
<glyph unicode="$" glyph-name="dollar" horiz-adv-x="1177" d="M1110 328Q1110 509 956 600Q869 652 647 702V1022Q727 1013 799 983Q837 968 924 928L1051 1079Q858 1195 647 1217V1438H555V1219Q338 1196 240 1126Q106 1030 106 825Q106 561 557 473V119Q376
134 201 229L66 72Q260 -52 557 -84V-315H647V-84Q1110 -38 1110 328ZM557 717Q455 740 422 758Q348 794 348 868Q348 952 416 985Q463 1008 557 1020V717ZM870 303Q870 213 799 166Q761 141 647 119V455Q870 424 870 303Z" />
<glyph unicode="&apos;" glyph-name="quotesingle" horiz-adv-x="258" d="M211 1405H43L98 848H160L211 1405Z" />
<glyph unicode="(" glyph-name="parenleft" horiz-adv-x="634" d="M635 -199Q483 -77 391 145Q303 363 303 616Q303 993 487 1249Q540 1323 631 1415L545 1511Q385 1390 272 1237Q72 957 72 596Q72 80 506 -276Q515 -284 551 -309L635 -199Z" />
<glyph unicode=")" glyph-name="parenright" horiz-adv-x="753" d="M688 604Q688 972 469 1260Q376 1378 254 1477Q214 1509 211 1511L127 1399Q281 1274 369 1055Q457 837 457 586Q457 208 270 -49Q229 -108 127 -213L215 -309Q389 -176 485 -37Q688 248 688 604Z" />
<glyph unicode="*" glyph-name="at" horiz-adv-x="700" d="M635 279V379L408 356L537 551L449 610L350 385L256 610L160 549L291 354L66 379V274L293 289L164 92L256 33L350 254L451 43L547 92L412 291L635 279Z" />
<glyph unicode="+" glyph-name="plus" horiz-adv-x="1302" d="M1159 492V686H764V1096H535V686H143V492H535V84H764V492H1159Z" />
<glyph unicode="-" glyph-name="hyphen" horiz-adv-x="907" d="M764 471V676H143V471H764Z" />
<glyph unicode="." glyph-name="period" horiz-adv-x="423" d="M301 0V258H51V0H301Z" />
<glyph unicode="/" glyph-name="slash" horiz-adv-x="858" d="M858 1333H633L0 0H225L858 1333Z" />
<glyph unicode="0" glyph-name="zero" horiz-adv-x="573" d="M430 211V528L143 670V354L430 211Z" />
<glyph unicode="1" glyph-name="one" horiz-adv-x="514" d="M371 0V1294L143 1128V0H371Z" />
<glyph unicode="2" glyph-name="two" horiz-adv-x="1077" d="M934 1122V1323Q831 1321 713 1321Q562 1321 452 1268T274 1113T175 875T143 565V0H371V688Q371 855 455 981Q550 1122 713 1122H934Z" />
<glyph unicode="3" glyph-name="three" horiz-adv-x="1163" d="M1087 1106V1313H866V1159Q866 1107 864 1079T852 1015T821 963T764 933T670 920Q694 928 708 948T728 1001T735 1053T737 1106V1313H557V1159Q557 1112 554 1082T539 1024T508 981T454 957T371 948V1313H143V0H371V739H655Q843
739 956 825Q1087 923 1087 1106Z" />
<glyph unicode="4" glyph-name="four" horiz-adv-x="1015" d="M915 0V190H545Q450 190 391 246T332 395Q332 498 390 556T545 614H664V768H553Q474 768 418 819T362 944Q362 1033 410 1085T553 1137H870V1321H514Q345 1321 238 1233T131 1001Q131 756 381 682Q100
629 100 375Q100 210 226 105T545 0H915Z" />
<glyph unicode="5" glyph-name="five" horiz-adv-x="1138" d="M1034 580Q1034 790 834 1006Q670 1181 557 1221Q451 1181 289 997Q92 773 92 578Q92 346 218 213T565 80Q782 80 908 217T1034 580ZM801 571Q801 440 735 364T559 287Q447 287 381 363T315 571Q315
675 397 815T559 997Q645 951 723 815T801 571Z" />
<glyph unicode="6" glyph-name="six" horiz-adv-x="1077" d="M143 1122V1323Q246 1321 365 1321Q486 1321 581 1286T742 1186T851 1027T914 818T934 565V0H707V688Q707 853 623 981Q527 1122 365 1122H143Z" />
<glyph unicode="7" glyph-name="seven" horiz-adv-x="1124" d="M715 0L1022 1321H772L571 254L336 1321H102L416 0H715Z" />
<glyph unicode="8" glyph-name="eight" horiz-adv-x="1124" d="M1022 0L715 1321H416L102 0H336L571 1069L772 0H1022Z" />
<glyph unicode="9" glyph-name="nine" horiz-adv-x="1142" d="M999 858Q999 1055 866 1188T532 1321Q333 1321 207 1192Q82 1067 82 864Q82 651 188 520Q309 375 532 375Q681 375 774 483V0H999V858ZM766 842Q766 737 715 666Q657 582 553 582Q450 582 385 666Q330
742 330 850Q330 960 381 1028Q441 1112 543 1112Q646 1112 711 1026Q766 950 766 842Z" />
<glyph unicode=":" glyph-name="colon" horiz-adv-x="444" d="M301 0V258H51V0H301ZM301 449V709H51V449H301Z" />
<glyph unicode="&lt;" glyph-name="less" horiz-adv-x="1110" d="M977 0L498 477L977 956H733L254 477L733 0H977Z" />
<glyph unicode="=" glyph-name="equal" horiz-adv-x="1220" d="M1106 668V864H113V668H1106ZM1106 279V477H113V279H1106Z" />
<glyph unicode="&gt;" glyph-name="greater" horiz-adv-x="1110" d="M856 457L377 936H154L633 457L154 -20H377L856 457Z" />
<glyph unicode="[" glyph-name="bracketleft" horiz-adv-x="520" d="M453 -272V-135H270V1333H453V1470H66V-272H453Z" />
<glyph unicode="\" glyph-name="backslash" horiz-adv-x="980" d="M913 0L281 1333H57L690 0H913Z" />
<glyph unicode="]" glyph-name="bracketright" horiz-adv-x="520" d="M453 -272V1470H66V1335H250V-133H66V-272H453Z" />
<glyph unicode="_" glyph-name="underscore" horiz-adv-x="782" d="M748 -205V-33H33V-205H748Z" />
<glyph unicode="{" glyph-name="braceleft" horiz-adv-x="768" d="M686 -279T686 -254T684 -221Q513 -219 445 -179T389 -27V387Q389 496 242 592Q389 706 389 795V1208Q389 1333 451 1368Q504 1411 682 1411V1430Q682 1468 678 1489Q446 1489 346 1424T246 1208V795Q246
736 203 680Q162 626 78 592H74Q246 479 246 387V-27Q246 -165 334 -225Q414 -293 625 -293L684 -289Q686 -279 686 -254Z" />
<glyph unicode="|" glyph-name="bar" horiz-adv-x="270" d="M70 -289H199V1485H70V-289Z" />
<glyph unicode="}" glyph-name="braceright" horiz-adv-x="768" d="M72 -279T72 -254T74 -221Q245 -219 313 -179T369 -27V387Q369 496 516 592Q369 706 369 795V1208Q369 1333 307 1368Q252 1411 76 1411V1430Q76 1468 80 1489Q312 1489 412 1424T512 1208V795Q512
734 555 680Q596 626 680 592H684Q512 480 512 387V-27Q512 -164 424 -225Q344 -293 133 -293L74 -289Q72 -279 72 -254Z" />
</font>
</defs>
</svg>
