<?xml version="1.0" standalone="no"?>
<!DOCTYPE svg PUBLIC "-//W3C//DTD SVG 1.1//EN" "http://www.w3.org/Graphics/SVG/1.1/DTD/svg11.dtd" >
<svg xmlns="http://www.w3.org/2000/svg">
<metadata></metadata>
<defs>
<font id="ae_almohanadregular" horiz-adv-x="1303" >
<font-face units-per-em="2048" ascent="1556" descent="-492" />
<missing-glyph horiz-adv-x="651" />
<glyph horiz-adv-x="2048" />
<glyph horiz-adv-x="2048" />
<glyph unicode="&#xd;" horiz-adv-x="651" />
<glyph unicode=" "  horiz-adv-x="651" />
<glyph unicode="&#x09;" horiz-adv-x="651" />
<glyph unicode="&#xa0;" horiz-adv-x="651" />
<glyph unicode="!" horiz-adv-x="823" d="M279 104q0 56 38 95t95 39q55 0 94 -39t39 -95q0 -55 -39 -94t-94 -39q-57 0 -95 38.5t-38 94.5zM283 1493h258l-68 -821v-252h-123v252z" />
<glyph unicode="&#x22;" horiz-adv-x="942" d="M201 938v555h159v-555h-159zM582 938v555h159v-555h-159z" />
<glyph unicode="#" horiz-adv-x="1716" d="M158 414v153h348l82 334h-316v154h355l104 415h170l-102 -415h282l103 415h172l-105 -415h308v-154h-347l-82 -334h314v-153h-352l-103 -414h-172l105 414h-283l-104 -414h-170l102 414h-309zM676 567h285l81 334h-282z" />
<glyph unicode="$" d="M174 922q0 160 110 257t306 109v268h100v-268q101 -8 194.5 -32.5t182.5 -65.5v-262h-109q-12 116 -81 183t-187 76v-452q246 -67 344.5 -153.5t98.5 -231.5q0 -166 -116 -266t-327 -115v-270h-100v270q-96 2 -199 27.5t-215 75.5v276h108q4 -137 80 -207t226 -73v485 q-230 64 -323 147.5t-93 221.5zM373 987q0 -80 52.5 -133t164.5 -86v419q-103 -7 -160 -59.5t-57 -140.5zM690 68q113 10 172.5 65t59.5 150q0 86 -59 146t-173 91v-452z" />
<glyph unicode="%" horiz-adv-x="1946" d="M113 1114q0 186 93 296t251 110t252 -109.5t94 -296.5q0 -189 -93.5 -298t-252.5 -109t-251.5 109.5t-92.5 297.5zM272 1112q0 -147 50.5 -231t136.5 -84q85 0 134.5 83.5t49.5 231.5t-49.5 231.5t-134.5 83.5q-88 0 -137.5 -83t-49.5 -232zM430 -29l934 1549h152 l-934 -1549h-152zM1143 377q0 188 93.5 297.5t252.5 109.5q158 0 251 -110t93 -297t-93.5 -296.5t-250.5 -109.5q-160 0 -253 109.5t-93 296.5zM1303 377q0 -147 50 -230.5t136 -83.5t135 83.5t49 230.5q0 148 -49.5 232.5t-134.5 84.5q-87 0 -136.5 -84t-49.5 -233z" />
<glyph unicode="&#x26;" horiz-adv-x="1823" d="M147 461q0 133 76.5 248.5t231.5 216.5q-51 61 -75 121.5t-24 126.5q0 159 114.5 252.5t311.5 93.5q67 0 156.5 -17t204.5 -51v-258h-113q-14 107 -78 163t-174 56q-103 0 -167 -56.5t-64 -146.5q0 -61 34 -121.5t142 -173.5l516 -544q69 80 108.5 172.5t49.5 197.5h-180 v107h473v-107h-172q-17 -130 -66.5 -243t-132.5 -209l172 -183h235v-106h-401l-137 145q-105 -88 -224 -131t-257 -43q-258 0 -409 132t-151 358zM350 483q0 -166 115 -278.5t287 -112.5q102 0 192.5 35.5t161.5 103.5l-582 613q-87 -78 -130.5 -168.5t-43.5 -192.5z" />
<glyph unicode="'" horiz-adv-x="563" d="M201 938v555h159v-555h-159z" />
<glyph unicode="(" horiz-adv-x="799" d="M162 618q0 356 124 592.5t367 345.5v-98q-154 -106 -221 -298.5t-67 -541.5q0 -348 67 -540.5t221 -298.5v-98q-243 109 -367 345.5t-124 591.5z" />
<glyph unicode=")" horiz-adv-x="799" d="M145 -221q154 106 221.5 298.5t67.5 540.5q0 349 -67.5 541.5t-221.5 298.5v98q244 -109 368 -345.5t124 -592.5q0 -355 -124 -591.5t-368 -345.5v98z" />
<glyph unicode="*" horiz-adv-x="1024" d="M33 870l391 183l-391 184l76 119l348 -217l-13 381h136l-13 -381l348 217l76 -119l-391 -182l391 -185l-76 -118l-348 217l13 -381h-136l13 381l-348 -217z" />
<glyph unicode="+" horiz-adv-x="1716" d="M217 561v162h561v561h160v-561h561v-162h-561v-561h-160v561h-561z" />
<glyph unicode="," horiz-adv-x="651" d="M74 -199q94 69 138 162.5t44 226.5v37h197q-8 -171 -80.5 -293.5t-218.5 -212.5z" />
<glyph unicode="-" horiz-adv-x="692" d="M90 471v156h512v-156h-512z" />
<glyph unicode="." horiz-adv-x="651" d="M193 104q0 56 38 95t95 39q55 0 94 -39t39 -95q0 -55 -39 -94t-94 -39q-57 0 -95 38.5t-38 94.5z" />
<glyph unicode="/" horiz-adv-x="690" d="M0 -190l530 1683h160l-530 -1683h-160z" />
<glyph unicode="0" d="M135 745q0 367 136.5 571t379.5 204q244 0 380 -204t136 -571q0 -366 -136 -570t-380 -204q-243 0 -379.5 204t-136.5 570zM346 745q0 -339 76 -507t229 -168t229 168t76 507q0 340 -76 508t-229 168t-229 -168t-76 -508z" />
<glyph unicode="1" d="M250 1153v131l364 236h138v-1414h260v-106h-721v106h260v1242z" />
<glyph unicode="2" d="M139 0v109l453 452q150 150 214 275.5t64 263.5q0 151 -78.5 236t-216.5 85q-143 0 -221 -71t-92 -213h-112v266q107 57 215.5 87t212.5 30q233 0 368 -113t135 -307q0 -219 -306 -524q-24 -23 -36 -35l-377 -377h623v184h117v-348h-963z" />
<glyph unicode="3" d="M156 72v290h112q10 -144 97 -218t245 -74q153 0 241.5 88.5t88.5 242.5q0 176 -91 266.5t-267 90.5h-95v102h50q175 0 262.5 72.5t87.5 218.5q0 131 -72 200.5t-207 69.5t-209.5 -64t-87.5 -190h-112v263q117 44 224.5 67t201.5 23q219 0 342 -94.5t123 -262.5 q0 -135 -85 -225.5t-241 -122.5q184 -26 285.5 -133.5t101.5 -278.5q0 -209 -140.5 -320.5t-404.5 -111.5q-117 0 -228.5 25t-221.5 76z" />
<glyph unicode="4" d="M63 399v109l654 1012h198v-1014h285v-107h-285v-293h240v-106h-680v106h240v293h-652zM205 506h510v794z" />
<glyph unicode="5" d="M174 72v290h113q9 -142 90.5 -217t228.5 -75q158 0 243 104t85 299q0 194 -84.5 297.5t-243.5 103.5q-90 0 -158.5 -32t-121.5 -99h-86v750h790v-164h-684v-428q52 36 121.5 54t155.5 18q242 0 382 -134t140 -366q0 -237 -141.5 -369.5t-397.5 -132.5q-103 0 -211 25 t-221 76z" />
<glyph unicode="6" d="M137 698q0 392 161 607t454 215q79 0 166 -15t178 -45v-246h-113q-12 101 -77 154t-175 53q-194 0 -289 -147t-98 -452q68 75 154 112t194 37q223 0 352.5 -134t129.5 -366q0 -227 -139.5 -363.5t-372.5 -136.5q-253 0 -389 188.5t-136 538.5zM377 483q0 -199 76 -306 t217 -107t217 103.5t76 297.5t-76 297.5t-217 103.5q-143 0 -218 -100t-75 -289z" />
<glyph unicode="7" d="M172 1145v348h983v-102l-584 -1391h-149l557 1329h-690v-184h-117z" />
<glyph unicode="8" d="M137 408q0 159 95 261.5t266 125.5q-151 27 -231.5 114.5t-80.5 223.5q0 180 124 283.5t341 103.5t341 -103.5t124 -283.5q0 -136 -80.5 -223.5t-230.5 -114.5q170 -23 265 -125.5t95 -261.5q0 -210 -133 -323.5t-381 -113.5q-247 0 -380.5 113.5t-133.5 323.5zM348 408 q0 -161 79.5 -249.5t223.5 -88.5t223.5 88.5t79.5 249.5q0 160 -79.5 248.5t-223.5 88.5t-223.5 -88.5t-79.5 -248.5zM389 1133q0 -137 69.5 -213t192.5 -76q124 0 193 76t69 213q0 136 -69 212t-193 76q-123 0 -192.5 -76t-69.5 -212z" />
<glyph unicode="9" d="M129 1020q0 227 139.5 363.5t372.5 136.5q253 0 388.5 -188.5t135.5 -538.5q0 -392 -161 -607t-453 -215q-79 0 -166 15t-178 45v248h112q13 -101 78 -155t174 -54q194 0 289 146.5t98 452.5q-67 -75 -154 -112t-196 -37q-222 0 -350.5 134t-128.5 366zM340 1020 q0 -194 75.5 -298t217.5 -104t217.5 100.5t75.5 289.5q0 199 -76 306t-217 107q-142 0 -217.5 -103.5t-75.5 -297.5z" />
<glyph unicode=":" horiz-adv-x="690" d="M213 104q0 56 38.5 95t94.5 39t94.5 -39t38.5 -95t-38 -94.5t-95 -38.5t-95 38.5t-38 94.5zM213 756q0 56 38.5 94.5t94.5 38.5q57 0 95 -38t38 -95t-38 -95t-95 -38q-56 0 -94.5 38.5t-38.5 94.5z" />
<glyph unicode=";" horiz-adv-x="690" d="M74 -199q94 69 138 162.5t44 226.5v37h197q-8 -171 -80.5 -293.5t-218.5 -212.5zM217 756q0 56 38.5 94.5t94.5 38.5t94.5 -39t38.5 -94q0 -56 -38.5 -94.5t-94.5 -38.5t-94.5 38.5t-38.5 94.5z" />
<glyph unicode="&#x3c;" horiz-adv-x="1716" d="M217 559v166l1282 465v-170l-1038 -379l1038 -377v-170z" />
<glyph unicode="=" horiz-adv-x="1716" d="M217 358v160h1282v-160h-1282zM217 766v160h1282v-160h-1282z" />
<glyph unicode="&#x3e;" horiz-adv-x="1716" d="M217 94v170l1038 377l-1038 379v170l1282 -465v-166z" />
<glyph unicode="?" horiz-adv-x="1098" d="M139 1167v260q106 47 201.5 70t179.5 23q222 0 350.5 -107t128.5 -289q0 -186 -110.5 -304t-333.5 -169v-254h-123v328q177 43 266.5 144t89.5 257q0 137 -73 216t-199 79q-114 0 -186.5 -65.5t-93.5 -188.5h-97zM360 104q0 56 38.5 95t95.5 39q55 0 94 -39t39 -95 q0 -55 -39 -94t-94 -39q-57 0 -95.5 38.5t-38.5 94.5z" />
<glyph unicode="@" horiz-adv-x="2048" d="M135 543q0 184 67 347t195 290q127 126 299.5 194t366.5 68q214 0 390.5 -83t295.5 -239q76 -98 115 -213t39 -239q0 -268 -163 -423.5t-445 -158.5l-1 162q-59 -82 -132.5 -122t-166.5 -40q-175 0 -284 125t-109 326t109 325.5t284 124.5q93 0 166.5 -40t132.5 -122v142 h156v-772q170 37 264 162t94 313q0 111 -34 210t-101 183q-106 133 -258.5 203.5t-331.5 70.5q-90 0 -178 -19t-174 -58q-202 -93 -314 -281.5t-112 -435.5q0 -167 50 -307.5t145 -243.5q109 -119 258.5 -181.5t322.5 -62.5q129 0 241 38t208 114l53 -70 q-108 -93 -245 -139.5t-300 -46.5q-183 0 -349.5 66.5t-291.5 189.5q-129 127 -195.5 290.5t-66.5 352.5zM780 537q0 -159 68 -246.5t190 -87.5q114 0 185 78.5t71 203.5v105q0 125 -71.5 202.5t-186.5 77.5q-121 0 -188.5 -87.5t-67.5 -245.5z" />
<glyph unicode="A" horiz-adv-x="1479" d="M-12 0v106h131l532 1387h168l533 -1387h147v-106h-543v106h166l-125 328h-628l-125 -328h164v-106h-420zM410 541h548l-274 710z" />
<glyph unicode="B" horiz-adv-x="1505" d="M113 0v106h190v1280h-190v107h737q226 0 340.5 -92.5t114.5 -276.5q0 -133 -79.5 -212t-232.5 -97q190 -24 288.5 -121.5t98.5 -261.5q0 -222 -140 -327t-437 -105h-690zM506 106h299q180 0 263 78t83 248q0 169 -82.5 246.5t-263.5 77.5h-299v-650zM506 862h254 q164 0 239.5 63t75.5 199q0 137 -75.5 199.5t-239.5 62.5h-254v-524z" />
<glyph unicode="C" horiz-adv-x="1567" d="M115 745q0 348 201 561.5t530 213.5q122 0 260 -32t297 -97v-344h-113q-37 188 -148.5 277t-312.5 89q-239 0 -362 -169.5t-123 -498.5q0 -328 123 -497.5t362 -169.5q167 0 275 79.5t156 237.5h184q-66 -209 -221.5 -316.5t-393.5 -107.5q-146 0 -271 50t-222 147 q-112 112 -166.5 254.5t-54.5 322.5z" />
<glyph unicode="D" horiz-adv-x="1642" d="M113 0v106h190v1280h-190v107h594q386 0 601.5 -197t215.5 -548q0 -352 -216 -550t-601 -198h-594zM506 106h186q291 0 446.5 166t155.5 476t-155 474t-447 164h-186v-1280z" />
<glyph unicode="E" horiz-adv-x="1495" d="M113 0v106h190v1280h-190v107h1202v-332h-123v209h-686v-500h489v187h123v-496h-123v187h-489v-625h702v209h123v-332h-1218z" />
<glyph unicode="F" horiz-adv-x="1421" d="M113 0v106h190v1280h-190v107h1222v-332h-123v209h-706v-500h510v187h123v-496h-123v187h-510v-642h239v-106h-632z" />
<glyph unicode="G" horiz-adv-x="1636" d="M115 745q0 354 204 564.5t549 210.5q128 0 264.5 -29.5t290.5 -89.5v-354h-112q-35 187 -146 276.5t-309 89.5q-258 0 -385 -166t-127 -502q0 -329 131 -498t385 -169q113 0 216 28t196 84v385h-281v107h484v-557q-133 -77 -286.5 -115.5t-328.5 -38.5 q-338 0 -541.5 211.5t-203.5 562.5z" />
<glyph unicode="H" horiz-adv-x="1786" d="M113 0v106h190v1280h-190v107h583v-107h-190v-516h774v516h-190v107h583v-107h-190v-1280h190v-106h-583v106h190v642h-774v-642h190v-106h-583z" />
<glyph unicode="I" horiz-adv-x="809" d="M113 0v106h190v1280h-190v107h583v-107h-190v-1280h190v-106h-583z" />
<glyph unicode="J" horiz-adv-x="821" d="M-172 -123h114q3 -99 47 -147.5t132 -48.5q119 0 166 75t47 293v1337h-232v107h625v-107h-190v-1345q0 -247 -99 -357t-319 -110q-71 0 -144.5 17t-146.5 51v235z" />
<glyph unicode="K" horiz-adv-x="1530" d="M113 0v106h190v1280h-190v107h583v-107h-190v-565l643 565h-162v107h496v-107h-168l-641 -563l717 -717h170v-106h-347l-708 709v-603h190v-106h-583z" />
<glyph unicode="L" horiz-adv-x="1360" d="M113 0v106h190v1280h-190v107h583v-107h-190v-1263h682v250h123v-373h-1198z" />
<glyph unicode="M" horiz-adv-x="2097" d="M102 1386v107h435l524 -1063l524 1063h408v-107h-199v-1280h191v-106h-584v106h190v1154l-512 -1041h-141l-512 1041v-1154h190v-106h-503v106h190v1280h-201z" />
<glyph unicode="N" horiz-adv-x="1792" d="M100 0v106h201v1280h-201v107h383l895 -1178v1071h-200v107h524v-107h-201v-1415h-121l-956 1258v-1123h201v-106h-525z" />
<glyph unicode="O" horiz-adv-x="1679" d="M115 745q0 181 54.5 323.5t166.5 254.5q98 98 224 147.5t280 49.5q325 0 525 -213t200 -562q0 -179 -55 -322.5t-167 -254.5q-98 -98 -224 -147.5t-279 -49.5q-152 0 -279.5 50t-224.5 147q-112 112 -166.5 254t-54.5 323zM344 745q0 -330 125 -498.5t371 -168.5 q245 0 370 168.5t125 498.5q0 331 -125 499.5t-370 168.5q-246 0 -371 -168.5t-125 -499.5z" />
<glyph unicode="P" horiz-adv-x="1378" d="M113 0v106h190v1280h-190v107h706q224 0 355 -113.5t131 -306.5q0 -192 -131 -306t-355 -114h-313v-547h231v-106h-624zM506 760h264q149 0 227 80.5t78 232.5q0 153 -78 233t-227 80h-264v-626z" />
<glyph unicode="Q" horiz-adv-x="1679" d="M115 745q0 181 54.5 323.5t166.5 254.5q98 98 224 147.5t280 49.5q325 0 525 -213t200 -562q0 -296 -150 -497.5t-414 -259.5q54 -67 131.5 -99t186.5 -32h31v-185q-169 8 -289.5 82.5t-196.5 216.5q-343 0 -546 210.5t-203 563.5zM344 745q0 -330 125 -498.5t371 -168.5 q245 0 370 168.5t125 498.5q0 331 -125 499.5t-370 168.5q-246 0 -371 -168.5t-125 -499.5z" />
<glyph unicode="R" horiz-adv-x="1542" d="M113 0v106h190v1280h-190v107h757q218 0 336.5 -104t118.5 -295q0 -154 -86.5 -242.5t-257.5 -110.5q70 -19 120.5 -64.5t90.5 -127.5l217 -443h182v-106h-352l-233 475q-67 138 -123 178.5t-154 40.5h-223v-588h211v-106h-604zM506 801h295q151 0 223 71.5t72 221.5 t-72 221t-223 71h-295v-585z" />
<glyph unicode="S" horiz-adv-x="1403" d="M172 1120q0 190 135 295t379 105q104 0 228 -22.5t264 -65.5v-318h-113q-17 158 -105.5 228.5t-269.5 70.5q-158 0 -240.5 -64.5t-82.5 -187.5q0 -107 62 -168t263 -121l185 -55q203 -61 289.5 -155.5t86.5 -253.5q0 -217 -139 -327t-414 -110q-123 0 -250.5 25 t-259.5 76v340l115 -1q5 -170 98.5 -251.5t284.5 -81.5q178 0 271.5 70.5t93.5 205.5q0 108 -56.5 166t-238.5 113l-197 59q-214 65 -301.5 162t-87.5 266z" />
<glyph unicode="T" horiz-adv-x="1366" d="M20 1141v352h1326v-352h-123v233h-439v-1268h191v-106h-584v106h191v1268h-439v-233h-123z" />
<glyph unicode="U" horiz-adv-x="1726" d="M96 1386v107h584v-107h-191v-772q0 -286 93.5 -399t322.5 -113t322.5 113t93.5 399v772h-191v107h504v-107h-190v-792q0 -341 -131 -482t-445 -141t-447.5 142t-133.5 481v792h-191z" />
<glyph unicode="V" horiz-adv-x="1479" d="M-20 1386v107h544v-107h-166l441 -1146l440 1146h-168v107h438v-107h-145l-533 -1386h-172l-530 1386h-149z" />
<glyph unicode="W" horiz-adv-x="2105" d="M10 1386v107h545v-107h-186l311 -1103l340 1210h162l346 -1223l313 1116h-172v107h430v-107h-147l-391 -1386h-164l-342 1214l-342 -1214h-164l-391 1386h-148z" />
<glyph unicode="X" horiz-adv-x="1458" d="M12 0v106h172l430 627l-436 653h-160v107h592v-107h-176l320 -481l329 481h-192v107h489v-107h-168l-395 -575l471 -705h160v-106h-592v106h178l-356 533l-365 -533h193v-106h-494z" />
<glyph unicode="Y" horiz-adv-x="1352" d="M-23 1386v107h555v-107h-174l373 -604l373 604h-168v107h434v-107h-141l-449 -724v-556h191v-106h-584v106h191v537l-461 743h-140z" />
<glyph unicode="Z" horiz-adv-x="1423" d="M92 0v72l930 1298h-772v-223h-123v346h1180v-72l-930 -1298h844v209h122v-332h-1251z" />
<glyph unicode="[" horiz-adv-x="799" d="M176 -270v1826h465v-106h-274v-1614h274v-106h-465z" />
<glyph unicode="\" horiz-adv-x="690" d="M0 1493h160l530 -1683h-160z" />
<glyph unicode="]" horiz-adv-x="799" d="M158 -164h274v1614h-274v106h465v-1826h-465v106z" />
<glyph unicode="^" horiz-adv-x="1716" d="M217 936l543 557h196l543 -557h-153l-488 381l-487 -381h-154z" />
<glyph unicode="_" horiz-adv-x="1024" d="M0 -403h1024v-80h-1024v80z" />
<glyph unicode="`" horiz-adv-x="1024" d="M170 1636h197l260 -376h-117z" />
<glyph unicode="a" horiz-adv-x="1221" d="M102 319q0 165 119 256t336 91h258v73q0 121 -73.5 187.5t-206.5 66.5q-110 0 -175 -50t-81 -148h-95v215q96 41 186.5 61.5t176.5 20.5q221 0 336.5 -109.5t115.5 -318.5v-558h164v-106h-348v115q-61 -74 -141 -109t-187 -35q-177 0 -281 94t-104 254zM307 319 q0 -111 68 -176t184 -65q115 0 185.5 71t70.5 185v225h-237q-137 0 -204 -59t-67 -181z" />
<glyph unicode="b" horiz-adv-x="1311" d="M59 0v106h177v1344h-177v106h361v-659q54 100 137.5 147.5t206.5 47.5q196 0 320 -155t124 -405t-124 -405.5t-320 -155.5q-123 0 -206.5 47.5t-137.5 147.5v-166h-361zM420 479q0 -192 73.5 -292.5t213.5 -100.5q141 0 213.5 113t72.5 333q0 221 -72.5 333t-213.5 112 q-140 0 -213.5 -101t-73.5 -292v-105z" />
<glyph unicode="c" horiz-adv-x="1147" d="M102 532q0 255 141 407.5t373 152.5q101 0 201 -23.5t201 -71.5v-272h-107q-21 140 -91.5 204t-201.5 64q-149 0 -225 -115.5t-76 -345.5t75.5 -346t225.5 -116q119 0 190 62t97 187h148q-39 -170 -150 -259t-287 -89q-232 0 -373 153.5t-141 407.5z" />
<glyph unicode="d" horiz-adv-x="1311" d="M102 532q0 250 124 405t321 155q123 0 206.5 -47.5t137.5 -147.5v553h-174v106h358v-1450h176v-106h-360v166q-54 -100 -137.5 -147.5t-206.5 -47.5q-196 0 -320.5 155.5t-124.5 405.5zM317 532q0 -220 72.5 -333t214.5 -113q140 0 213.5 100.5t73.5 292.5v105 q0 191 -73.5 292t-213.5 101q-142 0 -214.5 -112t-72.5 -333z" />
<glyph unicode="e" horiz-adv-x="1212" d="M102 532q0 252 139 406t365 154q241 0 370 -148.5t134 -431.5h-793v-8q0 -215 81 -324.5t239 -109.5q121 0 198.5 63.5t108.5 188.5h148q-44 -175 -162.5 -263t-311.5 -88q-233 0 -374.5 153.5t-141.5 407.5zM317 618h576q-6 186 -78.5 280.5t-208.5 94.5 q-127 0 -200 -95t-89 -280z" />
<glyph unicode="f" horiz-adv-x="758" d="M74 0v106h176v850h-176v107h176v133q0 178 92.5 269t271.5 91q67 0 134 -12t133 -37v-202h-97q-1 75 -42.5 114t-120.5 39q-103 0 -145 -56.5t-42 -201.5v-137h297v-107h-297v-850h236v-106h-596z" />
<glyph unicode="g" horiz-adv-x="1311" d="M102 532q0 250 124 405t321 155q123 0 206.5 -47.5t137.5 -147.5v166h360v-107h-176v-933q0 -229 -126 -353.5t-359 -124.5q-105 0 -201 19t-184 57v223h96q18 -104 85 -152t192 -48q162 0 237.5 91.5t75.5 287.5v143q-54 -100 -137.5 -147.5t-206.5 -47.5 q-196 0 -320.5 155.5t-124.5 405.5zM317 532q0 -220 72.5 -333t214.5 -113q140 0 213.5 100.5t73.5 292.5v105q0 191 -73.5 292t-213.5 101q-142 0 -214.5 -112t-72.5 -333z" />
<glyph unicode="h" horiz-adv-x="1319" d="M74 1450v106h360v-682q51 108 132.5 163t189.5 55q176 0 259 -101t83 -315v-570h164v-106h-508v106h159v512q0 195 -47.5 266.5t-169.5 71.5q-128 0 -195 -93t-67 -271v-486h160v-106h-510v106h166v1344h-176z" />
<glyph unicode="i" horiz-adv-x="655" d="M74 0v106h176v850h-176v107h360v-957h174v-106h-534zM199 1393q0 46 33.5 80t80.5 34q46 0 79.5 -34t33.5 -80q0 -47 -33 -80t-80 -33t-80.5 33t-33.5 80z" />
<glyph unicode="j" horiz-adv-x="635" d="M-197 -170h95q7 -96 49.5 -141t124.5 -45q91 0 134.5 61.5t43.5 190.5v1060h-174v107h358v-1167q0 -164 -97.5 -257.5t-268.5 -93.5q-72 0 -137.5 16.5t-127.5 49.5v219zM205 1393q0 46 33.5 80t80.5 34q46 0 79.5 -34t33.5 -80q0 -47 -32.5 -80t-80.5 -33 q-47 0 -80.5 33t-33.5 80z" />
<glyph unicode="k" horiz-adv-x="1241" d="M59 1450v106h361v-1013l448 413h-153v107h481v-107h-182l-316 -292l404 -558h153v-106h-524v106h152l-318 437l-145 -135v-302h166v-106h-516v106h166v1344h-177z" />
<glyph unicode="l" horiz-adv-x="655" d="M59 0v106h177v1344h-177v106h361v-1450h174v-106h-535z" />
<glyph unicode="m" horiz-adv-x="1942" d="M74 958v105h360v-189q51 106 130 162t179 56q124 0 207 -61.5t111 -174.5q53 117 135.5 176.5t192.5 59.5q167 0 249 -103.5t82 -312.5v-570h166v-106h-510v106h160v549q0 163 -48 232t-159 69q-123 0 -187.5 -93t-64.5 -271v-486h160v-106h-504v106h160v556 q0 159 -48 226.5t-159 67.5q-123 0 -187.5 -93t-64.5 -271v-486h160v-106h-510v106h166v852h-176z" />
<glyph unicode="n" horiz-adv-x="1319" d="M74 956v107h360v-189q51 108 132.5 163t189.5 55q176 0 259 -101t83 -315v-570h164v-106h-508v106h159v512q0 195 -48 267.5t-169 72.5q-128 0 -195 -93.5t-67 -272.5v-486h160v-106h-510v106h166v850h-176z" />
<glyph unicode="o" horiz-adv-x="1233" d="M102 532q0 254 140.5 407t373.5 153t373.5 -153t140.5 -407t-140.5 -407.5t-373.5 -153.5q-232 0 -373 153.5t-141 407.5zM317 532q0 -228 76 -345t223 -117q148 0 223.5 117t75.5 345t-75.5 344.5t-223.5 116.5t-223.5 -116.5t-75.5 -344.5z" />
<glyph unicode="p" horiz-adv-x="1311" d="M59 -319h177v1275h-177v107h361v-166q54 100 137.5 147.5t206.5 47.5q196 0 320 -155t124 -405t-124 -405.5t-320 -155.5q-123 0 -206.5 47.5t-137.5 147.5v-485h174v-107h-535v107zM420 479q0 -192 73.5 -292.5t213.5 -100.5q141 0 213.5 113t72.5 333q0 221 -72.5 333 t-213.5 112q-140 0 -213.5 -101t-73.5 -292v-105z" />
<glyph unicode="q" horiz-adv-x="1311" d="M102 532q0 250 124 405t321 155q123 0 206.5 -47.5t137.5 -147.5v166h360v-107h-176v-1275h176v-107h-534v107h174v485q-54 -100 -137.5 -147.5t-206.5 -47.5q-196 0 -320.5 155.5t-124.5 405.5zM317 532q0 -220 72.5 -333t214.5 -113q140 0 213.5 100.5t73.5 292.5v105 q0 191 -73.5 292t-213.5 101q-142 0 -214.5 -112t-72.5 -333z" />
<glyph unicode="r" horiz-adv-x="979" d="M74 958v105h360v-189q54 111 139 164.5t207 53.5q45 0 94.5 -7t104.5 -20v-266h-106q-5 79 -44 118t-114 39q-136 0 -208.5 -94t-72.5 -270v-486h213v-106h-563v106h166v852h-176z" />
<glyph unicode="s" horiz-adv-x="1051" d="M115 59v248h106q4 -119 74.5 -178t208.5 -59q124 0 189 46.5t65 135.5q0 70 -47.5 113t-200.5 92l-133 45q-137 44 -198.5 110t-61.5 168q0 146 107 229t296 83q84 0 177 -22t192 -64v-232h-106q-4 103 -72 161t-185 58q-116 0 -175.5 -41t-59.5 -123q0 -67 45 -107.5 t180 -82.5l146 -45q151 -47 217.5 -117.5t66.5 -181.5q0 -151 -115.5 -237.5t-318.5 -86.5q-103 0 -201 22t-196 66z" />
<glyph unicode="t" horiz-adv-x="823" d="M59 956v107h162v330h185v-330h346v-107h-346v-675q0 -135 26 -173t96 -38q72 0 105 42.5t35 137.5h139q-8 -145 -79 -212t-216 -67q-159 0 -225 70.5t-66 239.5v675h-162z" />
<glyph unicode="u" horiz-adv-x="1319" d="M55 956v107h351v-619q0 -194 47.5 -266t169.5 -72q128 0 195 94t67 273v483h-160v107h344v-957h174v-106h-358v188q-51 -106 -132 -161.5t-188 -55.5q-177 0 -260.5 100.5t-83.5 315.5v569h-166z" />
<glyph unicode="v" horiz-adv-x="1157" d="M-6 956v107h489v-107h-170l299 -731l299 731h-159v107h399v-107h-119l-391 -956h-135l-391 956h-121z" />
<glyph unicode="w" horiz-adv-x="1753" d="M33 956v107h481v-107h-172l238 -723l274 830h129l272 -830l240 723h-154v107h385v-107h-118l-316 -956h-153l-262 795l-263 -795h-147l-315 956h-119z" />
<glyph unicode="x" horiz-adv-x="1155" d="M25 956v107h475v-107h-127l223 -307l223 307h-143v107h409v-107h-141l-285 -393l332 -457h139v-106h-491v106h135l-231 318l-232 -318h138v-106h-404v106h141l293 404l-323 446h-131z" />
<glyph unicode="y" horiz-adv-x="1157" d="M-6 956v107h489v-107h-170l299 -731l299 731h-159v107h399v-107h-119l-487 -1196q-50 -124 -111 -169.5t-172 -45.5q-47 0 -96.5 8t-99.5 23v203h94q6 -68 34.5 -97.5t88.5 -29.5q55 0 88.5 30.5t70.5 122.5l70 177l-397 974h-121z" />
<glyph unicode="z" horiz-adv-x="1079" d="M82 0v86l666 870h-527v-184h-106v291h870v-86l-666 -871h578v193h107v-299h-922z" />
<glyph unicode="{" d="M256 559v105h61q142 0 196 58t54 208v258q0 221 84.5 294.5t333.5 73.5h62v-104h-68q-141 0 -184 -44t-43 -185v-287q0 -158 -50 -226t-180 -98q132 -34 181 -101t49 -224v-287q0 -141 43 -185t184 -44h68v-105h-62q-249 0 -333.5 74t-84.5 295v258q0 150 -54 208 t-196 58h-61z" />
<glyph unicode="|" horiz-adv-x="690" d="M264 -483v2048h162v-2048h-162z" />
<glyph unicode="}" d="M256 -229h70q140 0 182.5 43.5t42.5 185.5v287q0 157 49 224t180 101q-130 30 -179.5 98t-49.5 226v287q0 142 -42.5 185.5t-182.5 43.5h-70v104h63q249 0 332.5 -73.5t83.5 -294.5v-258q0 -150 54 -208t196 -58h62v-105h-62q-142 0 -196 -58t-54 -208v-258 q0 -221 -83.5 -295t-332.5 -74h-63v105z" />
<glyph unicode="~" horiz-adv-x="1716" d="M217 477v152q100 87 189.5 127.5t183.5 40.5q96 0 270 -66l10 -4q11 -4 31 -12q145 -58 242 -58q92 0 180 37t176 113v-148q-100 -88 -190 -130t-183 -42q-96 0 -270 66l-10 4q-11 4 -33 13q-147 57 -242 57q-92 0 -178.5 -36.5t-175.5 -113.5z" />
<glyph unicode="&#xa0;" />
<glyph unicode="&#xa1;" horiz-adv-x="823" d="M279 1389q0 56 38 94.5t95 38.5q55 0 94 -39t39 -94q0 -56 -39 -95t-94 -39q-57 0 -95 39t-38 95zM283 0l67 821v252h123v-252l68 -821h-258z" />
<glyph unicode="&#xa2;" d="M154 532q0 242 127.5 391.5t347.5 166.5v266h100v-266q92 -8 176 -31t164 -62v-272h-106q-19 123 -76.5 188.5t-157.5 77.5v-919q90 12 148 75.5t79 171.5h148q-35 -154 -129 -240.5t-246 -105.5v-270h-100v270q-220 19 -347.5 169t-127.5 390zM371 532q0 -215 64.5 -330 t193.5 -130v919q-129 -15 -193.5 -130t-64.5 -329z" />
<glyph unicode="&#xa3;" d="M137 0v106h193v594h-193v107h193v295q0 205 114.5 311.5t335.5 106.5q85 0 166 -12.5t156 -37.5v-245h-105q-10 95 -66.5 145.5t-152.5 50.5q-127 0 -187.5 -77.5t-60.5 -241.5v-295h412v-107h-412v-579h478v227h116v-348h-987z" />
<glyph unicode="&#xa4;" d="M104 186l205 207q-41 62 -61.5 123t-20.5 125q0 70 21 129.5t65 116.5l-207 207l95 94l207 -207q56 44 116 65t129 21q66 0 127 -20t121 -62l209 207l94 -94l-209 -209q43 -60 63.5 -121t20.5 -127q0 -69 -20.5 -128t-65.5 -116l207 -207l-96 -94l-207 205 q-56 -44 -115.5 -65t-128.5 -21q-64 0 -126.5 20.5t-123.5 61.5l-204 -205zM385 643q0 -114 77.5 -192t190.5 -78t191 78.5t78 191.5q0 112 -77.5 189t-191.5 77q-112 0 -190 -77t-78 -189z" />
<glyph unicode="&#xa5;" d="M-16 1386v107h553v-107h-175l343 -604l339 604h-167v107h432v-107h-142l-284 -497h272v-105h-332l-71 -122v-84h403v-105h-403v-367h190v-106h-582v106h191v367h-404v105h404v65l-82 141h-322v105h263l-287 497h-139z" />
<glyph unicode="&#xa6;" horiz-adv-x="690" d="M264 -350v758h162v-758h-162zM264 674v758h162v-758h-162z" />
<glyph unicode="&#xa7;" horiz-adv-x="1024" d="M92 719q0 94 59 160.5t168 97.5q-82 49 -121.5 112t-39.5 142q0 130 100 209.5t266 79.5q78 0 154 -14t151 -42v-202h-92q-2 72 -54 113.5t-140 41.5q-100 0 -157.5 -48.5t-57.5 -131.5q0 -97 246 -234q26 -15 38 -22q195 -109 257.5 -184t62.5 -174q0 -95 -52.5 -158 t-166.5 -107q78 -47 114.5 -110t36.5 -154q0 -131 -102 -210t-275 -79q-90 0 -170 13.5t-157 42.5v209l92 -1q2 -80 56 -120.5t161 -40.5q104 0 164.5 49t60.5 133q0 113 -228 240q-21 12 -32 18q-216 122 -279 197t-63 174zM256 754q0 -132 363 -335l32 -18q58 38 87.5 86 t29.5 105q0 75 -69.5 142t-319.5 202q-68 -46 -95.5 -87.5t-27.5 -94.5z" />
<glyph unicode="&#xa8;" horiz-adv-x="1024" d="M201 1452q0 48 34.5 82.5t81.5 34.5q48 0 82.5 -34.5t34.5 -82.5q0 -51 -33 -84t-84 -33q-50 0 -83 33t-33 84zM590 1452q0 48 34.5 82.5t82.5 34.5q47 0 81.5 -34.5t34.5 -82.5q0 -51 -33 -84t-83 -33q-51 0 -84 33t-33 84z" />
<glyph unicode="&#xa9;" horiz-adv-x="2048" d="M283 741q0 154 54 285t163 240t240.5 164t283.5 55t283.5 -55t240.5 -164t163 -240t54 -285q0 -152 -54 -282.5t-163 -239.5t-240.5 -164t-283.5 -55t-283.5 55t-240.5 164t-163 239.5t-54 282.5zM385 741q0 -130 47.5 -243t140.5 -207q94 -94 207 -141.5t244 -47.5 q132 0 245.5 47.5t207.5 141.5q93 93 139.5 206t46.5 244q0 133 -47 246.5t-139 206.5q-94 94 -207.5 141t-245.5 47q-131 0 -244 -47t-207 -141q-93 -93 -140.5 -207.5t-47.5 -245.5zM616 741q0 201 112.5 322t297.5 121q80 0 157.5 -18.5t164.5 -57.5v-213h-84 q-17 109 -74 160t-162 51q-119 0 -179.5 -91.5t-60.5 -273.5q0 -181 60 -271.5t178 -90.5q97 0 153.5 47.5t77.5 146.5h119q-27 -131 -117.5 -201.5t-232.5 -70.5q-187 0 -298.5 120t-111.5 320z" />
<glyph unicode="&#xaa;" horiz-adv-x="973" d="M125 979q0 114 95 178t265 64h205v45q0 84 -58 131t-163 47q-87 0 -138 -35t-65 -104h-76v157q77 29 149 43.5t138 14.5q177 0 269 -77t92 -224v-379h80v-84h-228v80q-48 -51 -110.5 -75t-149.5 -24q-141 0 -223 65t-82 177zM166 535v104h698v-104h-698zM289 987 q0 -81 50.5 -123.5t147.5 -42.5q92 0 147.5 48.5t55.5 127.5v148h-188q-105 0 -159 -40t-54 -118z" />
<glyph unicode="&#xab;" horiz-adv-x="1253" d="M158 559v82l469 418v-115l-297 -344l297 -344v-115zM592 559v82l469 418v-115l-297 -344l297 -344v-115z" />
<glyph unicode="&#xac;" horiz-adv-x="1716" d="M217 700v162h1282v-575h-160v413h-1122z" />
<glyph unicode="&#xad;" horiz-adv-x="692" d="M90 471v156h512v-156h-512z" />
<glyph unicode="&#xae;" horiz-adv-x="2048" d="M283 741q0 154 54 285t163 240t240.5 164t283.5 55t283.5 -55t240.5 -164t163 -240t54 -285q0 -152 -54 -282.5t-163 -239.5t-240.5 -164t-283.5 -55t-283.5 55t-240.5 164t-163 239.5t-54 282.5zM385 741q0 -130 47.5 -243t140.5 -207q94 -94 207 -141.5t244 -47.5 q132 0 245.5 47.5t207.5 141.5q93 93 139.5 206t46.5 244q0 133 -47 246.5t-139 206.5q-94 94 -207.5 141t-245.5 47q-131 0 -244 -47t-207 -141q-93 -93 -140.5 -207.5t-47.5 -245.5zM662 352v68h83v672h-83v67h415q128 0 193 -56t65 -165q0 -83 -48 -128.5t-146 -55.5 q42 -14 71.5 -39.5t49.5 -65.5l116 -229h76v-68h-190l-131 254q-35 70 -66 93.5t-80 23.5h-92v-303h84v-68h-317zM895 791h125q83 0 124.5 38t41.5 113q0 74 -42 112t-124 38h-125v-301z" />
<glyph unicode="&#xaf;" horiz-adv-x="1024" d="M213 1378v148h598v-148h-598z" />
<glyph unicode="&#xb0;" horiz-adv-x="1024" d="M195 1200q0 134 92 227t225 93q64 0 123 -24.5t102 -70.5q46 -45 69 -102t23 -123q0 -132 -92.5 -223.5t-226.5 -91.5q-135 0 -225 90t-90 225zM332 1200q0 -76 51.5 -127t128.5 -51q76 0 128 51.5t52 126.5t-53 128.5t-127 53.5q-76 0 -128 -52.5t-52 -129.5z" />
<glyph unicode="&#xb1;" horiz-adv-x="1716" d="M217 0v160h1282v-160h-1282zM217 731v162h561v391h160v-391h561v-162h-561v-391h-160v391h-561z" />
<glyph unicode="&#xb2;" horiz-adv-x="821" d="M90 668v75l285 254q86 77 123 138t37 127q0 85 -48.5 134.5t-132.5 49.5q-78 0 -125 -38t-59 -112h-70v158q66 32 136 49t139 17q138 0 223.5 -66t85.5 -170q0 -122 -194 -296l-19 -17l-238 -215h385v108h74v-196h-602z" />
<glyph unicode="&#xb3;" horiz-adv-x="821" d="M100 709v170l70 -1q5 -74 54 -112.5t141 -38.5q94 0 145 44t51 126q0 93 -51 140.5t-152 47.5h-53v74h27q97 0 146.5 37t49.5 111q0 67 -40.5 103t-116.5 36q-82 0 -125.5 -32t-50.5 -97h-70v151q73 26 140 39t126 13q138 0 212.5 -54t74.5 -153q0 -72 -53 -122t-148 -67 q119 -16 179.5 -75.5t60.5 -159.5q0 -114 -87.5 -175t-250.5 -61q-72 0 -141.5 14t-137.5 42z" />
<glyph unicode="&#xb4;" horiz-adv-x="1024" d="M393 1262l258 376h199l-340 -376h-117z" />
<glyph unicode="&#xb5;" horiz-adv-x="1331" d="M59 -319h177v1275h-166v107h350v-619q0 -194 48 -266t169 -72q128 0 195 94t67 273v483h-160v107h344v-959h174v-104h-358v188q-52 -106 -125.5 -161.5t-163.5 -55.5q-57 0 -104 18t-86 54v-362h174v-107h-535v107z" />
<glyph unicode="&#xb6;" d="M158 1071q0 190 130 306t345 116h538v-107h-118v-1583h-107v1583h-231v-1583h-107v846q-215 17 -332.5 127.5t-117.5 294.5z" />
<glyph unicode="&#xb7;" horiz-adv-x="651" d="M190 711q0 56 38.5 94.5t95.5 38.5q55 0 94 -39t39 -94q0 -56 -39 -94.5t-94 -38.5q-57 0 -95.5 38t-38.5 95z" />
<glyph unicode="&#xb8;" horiz-adv-x="1024" d="M291 -240q41 -17 80.5 -25.5t74.5 -8.5q57 0 90 26.5t33 71.5q0 28 -22 72t-66 104h97q64 -64 95.5 -120t31.5 -105q0 -81 -63 -125.5t-175 -44.5q-42 0 -86 6t-90 18v131z" />
<glyph unicode="&#xb9;" horiz-adv-x="821" d="M147 1280v94l240 129h102v-751h173v-84h-486v84h172v634z" />
<glyph unicode="&#xba;" horiz-adv-x="963" d="M94 1128q0 177 106 284.5t281 107.5t281 -107.5t106 -284.5t-105.5 -284t-281.5 -107q-175 0 -281 107.5t-106 283.5zM137 535v104h688v-104h-688zM268 1128q0 -155 54 -235t159 -80q106 0 159.5 79.5t53.5 235.5t-54 236t-159 80q-104 0 -158.5 -81t-54.5 -235z" />
<glyph unicode="&#xbb;" horiz-adv-x="1253" d="M193 141v115l296 344l-296 344v115l469 -418v-82zM627 141v115l297 344l-297 344v115l469 -418v-82z" />
<glyph unicode="&#xbc;" horiz-adv-x="1985" d="M147 1280v94l240 129h102v-751h173v-84h-486v84h172v634zM446 -29l942 1549h150l-942 -1549h-150zM1216 223v84l400 530h141v-532h164v-82h-164v-137h145v-84h-434v84h146v137h-398zM1306 305h308v407z" />
<glyph unicode="&#xbd;" horiz-adv-x="1985" d="M147 1280v94l240 129h102v-751h173v-84h-486v84h172v634zM446 -29l942 1549h150l-942 -1549h-150zM1253 2v75l285 254q86 77 123 138t37 127q0 85 -48.5 134.5t-132.5 49.5q-78 0 -125 -38t-59 -112h-70v158q66 32 136 49t139 17q138 0 223.5 -66t85.5 -170 q0 -122 -194 -296l-19 -17l-238 -215h385v108h74v-196h-602z" />
<glyph unicode="&#xbe;" horiz-adv-x="1985" d="M100 709v170l70 -1q5 -74 54 -112.5t141 -38.5q94 0 145 44t51 126q0 93 -51 140.5t-152 47.5h-53v74h27q97 0 146.5 37t49.5 111q0 67 -40.5 103t-116.5 36q-82 0 -125.5 -32t-50.5 -97h-70v151q73 26 140 39t126 13q138 0 212.5 -54t74.5 -153q0 -72 -53 -122t-148 -67 q119 -16 179.5 -75.5t60.5 -159.5q0 -114 -87.5 -175t-250.5 -61q-72 0 -141.5 14t-137.5 42zM446 -29l942 1549h150l-942 -1549h-150zM1216 223v84l400 530h141v-532h164v-82h-164v-137h145v-84h-434v84h146v137h-398zM1306 305h308v407z" />
<glyph unicode="&#xbf;" horiz-adv-x="1098" d="M139 369q0 186 111 304t334 169v254h123v-328q-177 -43 -267 -144t-90 -257q0 -137 73.5 -216t199.5 -79q113 0 186 65.5t94 188.5h96v-260q-106 -47 -201 -70t-180 -23q-221 0 -350 107t-129 289zM512 1389q0 55 39 94t94 39q57 0 95 -38.5t38 -94.5t-38.5 -95 t-94.5 -39q-55 0 -94 39t-39 95z" />
<glyph unicode="&#xc0;" horiz-adv-x="1479" d="M-12 0v106h131l532 1387h168l533 -1387h147v-106h-543v106h166l-125 328h-628l-125 -328h164v-106h-420zM410 541h548l-274 710zM473 1899h196l183 -264h-117z" />
<glyph unicode="&#xc1;" horiz-adv-x="1479" d="M-12 0v106h131l532 1387h168l533 -1387h147v-106h-543v106h166l-125 328h-628l-125 -328h164v-106h-420zM410 541h548l-274 710zM620 1635l182 264h197l-262 -264h-117z" />
<glyph unicode="&#xc2;" horiz-adv-x="1479" d="M-12 0v106h131l532 1387h168l533 -1387h147v-106h-543v106h166l-125 328h-628l-125 -328h164v-106h-420zM410 541h548l-274 710zM420 1635l231 264h176l231 -264h-116l-203 161l-203 -161h-116z" />
<glyph unicode="&#xc3;" horiz-adv-x="1479" d="M-12 0v106h131l532 1387h168l533 -1387h147v-106h-543v106h166l-125 328h-628l-125 -328h164v-106h-420zM409 1668q2 100 53 159t136 59q36 0 67 -9t86 -40l49 -26q23 -13 45 -20t39 -7q41 0 64.5 27.5t23.5 74.5h97q-2 -105 -53.5 -162t-145.5 -57q-67 0 -139 45l-5 3 l-48 28q-20 13 -40.5 20t-37.5 7q-39 0 -65 -28.5t-30 -74.5zM410 541h548l-274 710z" />
<glyph unicode="&#xc4;" horiz-adv-x="1479" d="M-12 0v106h131l532 1387h168l533 -1387h147v-106h-543v106h166l-125 328h-628l-125 -328h164v-106h-420zM410 541h548l-274 710zM428 1768q0 46 34.5 81t81.5 35q48 0 82.5 -35t34.5 -81q0 -50 -33.5 -83.5t-83.5 -33.5q-49 0 -82.5 33.5t-33.5 83.5zM817 1768 q0 46 34.5 81t82.5 35q47 0 81.5 -35t34.5 -81q0 -50 -33.5 -83.5t-82.5 -33.5q-50 0 -83.5 33.5t-33.5 83.5z" />
<glyph unicode="&#xc5;" horiz-adv-x="1479" d="M-12 0v106h131l489 1278q-72 37 -109.5 98t-37.5 144q0 114 80 194.5t194 80.5t194.5 -80.5t80.5 -194.5q0 -80 -39 -143.5t-111 -98.5l492 -1278h147v-106h-543v106h166l-125 328h-628l-125 -328h164v-106h-420zM410 541h546l-272 710zM584 1626q0 -63 43.5 -107 t107.5 -44q63 0 107.5 44t44.5 107t-44.5 107.5t-107.5 44.5q-64 0 -107.5 -43.5t-43.5 -108.5z" />
<glyph unicode="&#xc6;" horiz-adv-x="2050" d="M-35 0v106h131l590 1280h-215v107h1456v-332h-123v209h-688v-500h492v187h123v-496h-123v187h-492v-625h705v209h123v-332h-1219v106h190v328h-538l-152 -328h164v-106h-424zM426 541h489v845h-100z" />
<glyph unicode="&#xc7;" horiz-adv-x="1567" d="M115 745q0 348 201 561.5t530 213.5q122 0 260 -32t297 -97v-344h-113q-37 188 -148.5 277t-312.5 89q-239 0 -362 -169.5t-123 -498.5q0 -328 123 -497.5t362 -169.5q167 0 275 79.5t156 237.5h184q-66 -209 -221.5 -316.5t-393.5 -107.5q-146 0 -271 50t-222 147 q-112 112 -166.5 254.5t-54.5 322.5zM623 -240q41 -17 80.5 -25.5t74.5 -8.5q57 0 90 26.5t33 71.5q0 28 -22 72t-66 104h97q64 -64 95.5 -120t31.5 -105q0 -81 -63 -125.5t-175 -44.5q-42 0 -86 6t-90 18v131z" />
<glyph unicode="&#xc8;" horiz-adv-x="1495" d="M113 0v106h190v1280h-190v107h1202v-332h-123v209h-686v-500h489v187h123v-496h-123v187h-489v-625h702v209h123v-332h-1218zM482 1899h196l183 -264h-117z" />
<glyph unicode="&#xc9;" horiz-adv-x="1495" d="M113 0v106h190v1280h-190v107h1202v-332h-123v209h-686v-500h489v187h123v-496h-123v187h-489v-625h702v209h123v-332h-1218zM629 1635l182 264h197l-262 -264h-117z" />
<glyph unicode="&#xca;" horiz-adv-x="1495" d="M113 0v106h190v1280h-190v107h1202v-332h-123v209h-686v-500h489v187h123v-496h-123v187h-489v-625h702v209h123v-332h-1218zM429 1635l231 264h176l231 -264h-116l-203 161l-203 -161h-116z" />
<glyph unicode="&#xcb;" horiz-adv-x="1495" d="M113 0v106h190v1280h-190v107h1202v-332h-123v209h-686v-500h489v187h123v-496h-123v187h-489v-625h702v209h123v-332h-1218zM437 1768q0 46 34.5 81t81.5 35q48 0 82.5 -35t34.5 -81q0 -50 -33.5 -83.5t-83.5 -33.5q-49 0 -82.5 33.5t-33.5 83.5zM826 1768q0 46 34.5 81 t82.5 35q47 0 81.5 -35t34.5 -81q0 -50 -33.5 -83.5t-82.5 -33.5q-50 0 -83.5 33.5t-33.5 83.5z" />
<glyph unicode="&#xcc;" horiz-adv-x="809" d="M113 0v106h190v1280h-190v107h583v-107h-190v-1280h190v-106h-583zM142 1899h196l183 -264h-117z" />
<glyph unicode="&#xcd;" horiz-adv-x="809" d="M113 0v106h190v1280h-190v107h583v-107h-190v-1280h190v-106h-583zM289 1635l182 264h197l-262 -264h-117z" />
<glyph unicode="&#xce;" horiz-adv-x="809" d="M89 1635l231 264h176l231 -264h-116l-203 161l-203 -161h-116zM113 0v106h190v1280h-190v107h583v-107h-190v-1280h190v-106h-583z" />
<glyph unicode="&#xcf;" horiz-adv-x="809" d="M97 1768q0 46 34.5 81t81.5 35q48 0 82.5 -35t34.5 -81q0 -50 -33.5 -83.5t-83.5 -33.5q-49 0 -82.5 33.5t-33.5 83.5zM113 0v106h190v1280h-190v107h583v-107h-190v-1280h190v-106h-583zM486 1768q0 46 34.5 81t82.5 35q47 0 81.5 -35t34.5 -81q0 -50 -33.5 -83.5 t-82.5 -33.5q-50 0 -83.5 33.5t-33.5 83.5z" />
<glyph unicode="&#xd0;" horiz-adv-x="1653" d="M113 719v125h200v542h-190v107h594q386 0 601.5 -197t215.5 -548q0 -352 -216 -550t-601 -198h-594v106h190v613h-200zM514 106h188q291 0 447 166t156 476t-155.5 474t-447.5 164h-188v-542h336v-125h-336v-613z" />
<glyph unicode="&#xd1;" horiz-adv-x="1792" d="M100 0v106h201v1280h-201v107h383l895 -1178v1071h-200v107h524v-107h-201v-1415h-121l-956 1258v-1123h201v-106h-525zM567 1668q2 100 53 159t136 59q36 0 67 -9t86 -40l49 -26q23 -13 45 -20t39 -7q41 0 64.5 27.5t23.5 74.5h97q-2 -105 -53.5 -162t-145.5 -57 q-67 0 -139 45l-5 3l-48 28q-20 13 -40.5 20t-37.5 7q-39 0 -65 -28.5t-30 -74.5z" />
<glyph unicode="&#xd2;" horiz-adv-x="1679" d="M115 745q0 181 54.5 323.5t166.5 254.5q98 98 224 147.5t280 49.5q325 0 525 -213t200 -562q0 -179 -55 -322.5t-167 -254.5q-98 -98 -224 -147.5t-279 -49.5q-152 0 -279.5 50t-224.5 147q-112 112 -166.5 254t-54.5 323zM344 745q0 -330 125 -498.5t371 -168.5 q245 0 370 168.5t125 498.5q0 331 -125 499.5t-370 168.5q-246 0 -371 -168.5t-125 -499.5zM574 1899h196l183 -264h-117z" />
<glyph unicode="&#xd3;" horiz-adv-x="1679" d="M115 745q0 181 54.5 323.5t166.5 254.5q98 98 224 147.5t280 49.5q325 0 525 -213t200 -562q0 -179 -55 -322.5t-167 -254.5q-98 -98 -224 -147.5t-279 -49.5q-152 0 -279.5 50t-224.5 147q-112 112 -166.5 254t-54.5 323zM344 745q0 -330 125 -498.5t371 -168.5 q245 0 370 168.5t125 498.5q0 331 -125 499.5t-370 168.5q-246 0 -371 -168.5t-125 -499.5zM721 1635l182 264h197l-262 -264h-117z" />
<glyph unicode="&#xd4;" horiz-adv-x="1679" d="M115 745q0 181 54.5 323.5t166.5 254.5q98 98 224 147.5t280 49.5q325 0 525 -213t200 -562q0 -179 -55 -322.5t-167 -254.5q-98 -98 -224 -147.5t-279 -49.5q-152 0 -279.5 50t-224.5 147q-112 112 -166.5 254t-54.5 323zM344 745q0 -330 125 -498.5t371 -168.5 q245 0 370 168.5t125 498.5q0 331 -125 499.5t-370 168.5q-246 0 -371 -168.5t-125 -499.5zM521 1635l231 264h176l231 -264h-116l-203 161l-203 -161h-116z" />
<glyph unicode="&#xd5;" horiz-adv-x="1679" d="M115 745q0 181 54.5 323.5t166.5 254.5q98 98 224 147.5t280 49.5q325 0 525 -213t200 -562q0 -179 -55 -322.5t-167 -254.5q-98 -98 -224 -147.5t-279 -49.5q-152 0 -279.5 50t-224.5 147q-112 112 -166.5 254t-54.5 323zM344 745q0 -330 125 -498.5t371 -168.5 q245 0 370 168.5t125 498.5q0 331 -125 499.5t-370 168.5q-246 0 -371 -168.5t-125 -499.5zM510 1668q2 100 53 159t136 59q36 0 67 -9t86 -40l49 -26q23 -13 45 -20t39 -7q41 0 64.5 27.5t23.5 74.5h97q-2 -105 -53.5 -162t-145.5 -57q-67 0 -139 45l-5 3l-48 28 q-20 13 -40.5 20t-37.5 7q-39 0 -65 -28.5t-30 -74.5z" />
<glyph unicode="&#xd6;" horiz-adv-x="1679" d="M115 745q0 181 54.5 323.5t166.5 254.5q98 98 224 147.5t280 49.5q325 0 525 -213t200 -562q0 -179 -55 -322.5t-167 -254.5q-98 -98 -224 -147.5t-279 -49.5q-152 0 -279.5 50t-224.5 147q-112 112 -166.5 254t-54.5 323zM344 745q0 -330 125 -498.5t371 -168.5 q245 0 370 168.5t125 498.5q0 331 -125 499.5t-370 168.5q-246 0 -371 -168.5t-125 -499.5zM529 1768q0 46 34.5 81t81.5 35q48 0 82.5 -35t34.5 -81q0 -50 -33.5 -83.5t-83.5 -33.5q-49 0 -82.5 33.5t-33.5 83.5zM918 1768q0 46 34.5 81t82.5 35q47 0 81.5 -35t34.5 -81 q0 -50 -33.5 -83.5t-82.5 -33.5q-50 0 -83.5 33.5t-33.5 83.5z" />
<glyph unicode="&#xd7;" horiz-adv-x="1716" d="M283 180l460 461l-460 463l114 113l461 -461l461 461l115 -113l-463 -463l463 -461l-115 -112l-461 460l-461 -460z" />
<glyph unicode="&#xd8;" horiz-adv-x="1679" d="M100 12l187 207q-87 105 -129.5 235.5t-42.5 290.5q0 346 201 560.5t524 214.5q141 0 261 -42.5t216 -125.5l178 198l80 -71l-184 -203q87 -108 130.5 -239.5t43.5 -291.5q0 -345 -200.5 -559.5t-524.5 -214.5q-141 0 -260 43t-220 129l-182 -200zM344 745 q0 -119 16 -215.5t50 -177.5l804 887q-65 88 -157.5 131t-216.5 43q-246 0 -371 -168.5t-125 -499.5zM463 256q64 -89 158 -133.5t219 -44.5q245 0 370 168.5t125 498.5q0 117 -16.5 215.5t-50.5 180.5z" />
<glyph unicode="&#xd9;" horiz-adv-x="1726" d="M96 1386v107h584v-107h-191v-772q0 -286 93.5 -399t322.5 -113t322.5 113t93.5 399v772h-191v107h504v-107h-190v-792q0 -341 -131 -482t-445 -141t-447.5 142t-133.5 481v792h-191zM637 1899h196l183 -264h-117z" />
<glyph unicode="&#xda;" horiz-adv-x="1726" d="M96 1386v107h584v-107h-191v-772q0 -286 93.5 -399t322.5 -113t322.5 113t93.5 399v772h-191v107h504v-107h-190v-792q0 -341 -131 -482t-445 -141t-447.5 142t-133.5 481v792h-191zM784 1635l182 264h197l-262 -264h-117z" />
<glyph unicode="&#xdb;" horiz-adv-x="1726" d="M96 1386v107h584v-107h-191v-772q0 -286 93.5 -399t322.5 -113t322.5 113t93.5 399v772h-191v107h504v-107h-190v-792q0 -341 -131 -482t-445 -141t-447.5 142t-133.5 481v792h-191zM584 1635l231 264h176l231 -264h-116l-203 161l-203 -161h-116z" />
<glyph unicode="&#xdc;" horiz-adv-x="1726" d="M96 1386v107h584v-107h-191v-772q0 -286 93.5 -399t322.5 -113t322.5 113t93.5 399v772h-191v107h504v-107h-190v-792q0 -341 -131 -482t-445 -141t-447.5 142t-133.5 481v792h-191zM592 1768q0 46 34.5 81t81.5 35q48 0 82.5 -35t34.5 -81q0 -50 -33.5 -83.5 t-83.5 -33.5q-49 0 -82.5 33.5t-33.5 83.5zM981 1768q0 46 34.5 81t82.5 35q47 0 81.5 -35t34.5 -81q0 -50 -33.5 -83.5t-82.5 -33.5q-50 0 -83.5 33.5t-33.5 83.5z" />
<glyph unicode="&#xdd;" horiz-adv-x="1352" d="M-23 1386v107h555v-107h-174l373 -604l373 604h-168v107h434v-107h-141l-449 -724v-556h191v-106h-584v106h191v537l-461 743h-140zM557 1635l182 264h197l-262 -264h-117z" />
<glyph unicode="&#xde;" horiz-adv-x="1384" d="M113 0v106h190v1280h-190v107h624v-107h-231v-219h313q224 0 355 -113.5t131 -305.5q0 -194 -131.5 -308t-354.5 -114h-313v-220h231v-106h-624zM506 434h264q149 0 227 80.5t78 233.5q0 152 -78 232.5t-227 80.5h-264v-627z" />
<glyph unicode="&#xdf;" horiz-adv-x="1368" d="M59 0v106h177v1080q0 176 114.5 273t323.5 97q213 0 324.5 -104t123.5 -315h-22q-145 0 -228.5 -54t-83.5 -147q0 -52 27 -90.5t100 -85.5l89 -55q155 -99 214.5 -184t59.5 -199q0 -155 -115.5 -253t-300.5 -98q-85 0 -169 18.5t-163 53.5v233h109q4 -101 59.5 -153.5 t157.5 -52.5q111 0 174.5 60.5t63.5 164.5q0 84 -40 142.5t-157 131.5l-86 54q-104 65 -148.5 129.5t-44.5 146.5q0 122 84.5 204t237.5 107q-8 119 -77.5 183.5t-188.5 64.5q-132 0 -193 -64.5t-61 -203.5v-1190h-361z" />
<glyph unicode="&#xe0;" horiz-adv-x="1221" d="M102 319q0 165 119 256t336 91h258v73q0 121 -73.5 187.5t-206.5 66.5q-110 0 -175 -50t-81 -148h-95v215q96 41 186.5 61.5t176.5 20.5q221 0 336.5 -109.5t115.5 -318.5v-558h164v-106h-348v115q-61 -74 -141 -109t-187 -35q-177 0 -281 94t-104 254zM227 1636h197 l260 -376h-117zM307 319q0 -111 68 -176t184 -65q115 0 185.5 71t70.5 185v225h-237q-137 0 -204 -59t-67 -181z" />
<glyph unicode="&#xe1;" horiz-adv-x="1221" d="M102 319q0 165 119 256t336 91h258v73q0 121 -73.5 187.5t-206.5 66.5q-110 0 -175 -50t-81 -148h-95v215q96 41 186.5 61.5t176.5 20.5q221 0 336.5 -109.5t115.5 -318.5v-558h164v-106h-348v115q-61 -74 -141 -109t-187 -35q-177 0 -281 94t-104 254zM307 319 q0 -111 68 -176t184 -65q115 0 185.5 71t70.5 185v225h-237q-137 0 -204 -59t-67 -181zM450 1262l258 376h199l-340 -376h-117z" />
<glyph unicode="&#xe2;" horiz-adv-x="1221" d="M102 319q0 165 119 256t336 91h258v73q0 121 -73.5 187.5t-206.5 66.5q-110 0 -175 -50t-81 -148h-95v215q96 41 186.5 61.5t176.5 20.5q221 0 336.5 -109.5t115.5 -318.5v-558h164v-106h-348v115q-61 -74 -141 -109t-187 -35q-177 0 -281 94t-104 254zM250 1262l235 376 h168l235 -376h-116l-203 260l-203 -260h-116zM307 319q0 -111 68 -176t184 -65q115 0 185.5 71t70.5 185v225h-237q-137 0 -204 -59t-67 -181z" />
<glyph unicode="&#xe3;" horiz-adv-x="1221" d="M102 319q0 165 119 256t336 91h258v73q0 121 -73.5 187.5t-206.5 66.5q-110 0 -175 -50t-81 -148h-95v215q96 41 186.5 61.5t176.5 20.5q221 0 336.5 -109.5t115.5 -318.5v-558h164v-106h-348v115q-61 -74 -141 -109t-187 -35q-177 0 -281 94t-104 254zM239 1309 q2 135 53 208.5t142 73.5q38 0 70 -14t69 -47l57 -55q23 -23 40 -31t38 -8q43 0 67 40t28 115h96q-2 -135 -53 -208.5t-142 -73.5q-38 0 -70 14t-69 47l-57 55q-26 24 -42.5 31.5t-35.5 7.5q-42 0 -66 -39.5t-29 -115.5h-96zM307 319q0 -111 68 -176t184 -65q115 0 185.5 71 t70.5 185v225h-237q-137 0 -204 -59t-67 -181z" />
<glyph unicode="&#xe4;" horiz-adv-x="1221" d="M102 319q0 165 119 256t336 91h258v73q0 121 -73.5 187.5t-206.5 66.5q-110 0 -175 -50t-81 -148h-95v215q96 41 186.5 61.5t176.5 20.5q221 0 336.5 -109.5t115.5 -318.5v-558h164v-106h-348v115q-61 -74 -141 -109t-187 -35q-177 0 -281 94t-104 254zM258 1452 q0 48 34.5 82.5t81.5 34.5q48 0 82.5 -34.5t34.5 -82.5q0 -51 -33 -84t-84 -33q-50 0 -83 33t-33 84zM307 319q0 -111 68 -176t184 -65q115 0 185.5 71t70.5 185v225h-237q-137 0 -204 -59t-67 -181zM647 1452q0 48 34.5 82.5t82.5 34.5q47 0 81.5 -34.5t34.5 -82.5 q0 -51 -33 -84t-83 -33q-51 0 -84 33t-33 84z" />
<glyph unicode="&#xe5;" horiz-adv-x="1221" d="M102 319q0 165 119 256t336 91h258v73q0 121 -73.5 187.5t-206.5 66.5q-110 0 -175 -50t-81 -148h-95v215q96 41 186.5 61.5t176.5 20.5q221 0 336.5 -109.5t115.5 -318.5v-558h164v-106h-348v115q-61 -74 -141 -109t-187 -35q-177 0 -281 94t-104 254zM295 1524 q0 115 79.5 194.5t194.5 79.5t194.5 -79.5t79.5 -194.5t-79.5 -195t-194.5 -80t-194.5 80t-79.5 195zM307 319q0 -111 68 -176t184 -65q115 0 185.5 71t70.5 185v225h-237q-137 0 -204 -59t-67 -181zM417 1524q0 -65 43.5 -108.5t108.5 -43.5q64 0 108 44t44 108 q0 63 -44 107t-108 44q-65 0 -108.5 -43.5t-43.5 -107.5z" />
<glyph unicode="&#xe6;" horiz-adv-x="1925" d="M102 319q0 165 119.5 256t335.5 91h258v73q0 120 -72 187t-200 67q-116 0 -182 -49.5t-82 -148.5h-95v215q96 41 186.5 61.5t176.5 20.5q141 0 237.5 -43.5t151.5 -133.5q74 88 170 132.5t213 44.5q241 0 370 -149t133 -431h-792v-8q0 -215 80.5 -324.5t239.5 -109.5 q121 0 198.5 63.5t108.5 188.5h147q-43 -175 -162 -263t-311 -88q-122 0 -225.5 45.5t-181.5 133.5q-83 -91 -184 -135t-226 -44q-197 0 -304.5 91t-107.5 257zM307 319q0 -111 68 -176t184 -65q115 0 185.5 71t70.5 185v225h-237q-137 0 -204 -59t-67 -181zM1030 618h576 q-6 186 -78.5 280.5t-208.5 94.5q-127 0 -200.5 -95t-88.5 -280z" />
<glyph unicode="&#xe7;" horiz-adv-x="1147" d="M102 532q0 255 141 407.5t373 152.5q101 0 201 -23.5t201 -71.5v-272h-107q-21 140 -91.5 204t-201.5 64q-149 0 -225 -115.5t-76 -345.5t75.5 -346t225.5 -116q119 0 190 62t97 187h148q-39 -170 -150 -259t-287 -89q-232 0 -373 153.5t-141 407.5zM391 -240 q41 -17 80.5 -25.5t74.5 -8.5q57 0 90 26.5t33 71.5q0 28 -22 72t-66 104h97q64 -64 95.5 -120t31.5 -105q0 -81 -63 -125.5t-175 -44.5q-42 0 -86 6t-90 18v131z" />
<glyph unicode="&#xe8;" horiz-adv-x="1212" d="M102 532q0 252 139 406t365 154q241 0 370 -148.5t134 -431.5h-793v-8q0 -215 81 -324.5t239 -109.5q121 0 198.5 63.5t108.5 188.5h148q-44 -175 -162.5 -263t-311.5 -88q-233 0 -374.5 153.5t-141.5 407.5zM264 1636h197l260 -376h-117zM317 618h576 q-6 186 -78.5 280.5t-208.5 94.5q-127 0 -200 -95t-89 -280z" />
<glyph unicode="&#xe9;" horiz-adv-x="1212" d="M102 532q0 252 139 406t365 154q241 0 370 -148.5t134 -431.5h-793v-8q0 -215 81 -324.5t239 -109.5q121 0 198.5 63.5t108.5 188.5h148q-44 -175 -162.5 -263t-311.5 -88q-233 0 -374.5 153.5t-141.5 407.5zM317 618h576q-6 186 -78.5 280.5t-208.5 94.5 q-127 0 -200 -95t-89 -280zM487 1262l258 376h199l-340 -376h-117z" />
<glyph unicode="&#xea;" horiz-adv-x="1212" d="M102 532q0 252 139 406t365 154q241 0 370 -148.5t134 -431.5h-793v-8q0 -215 81 -324.5t239 -109.5q121 0 198.5 63.5t108.5 188.5h148q-44 -175 -162.5 -263t-311.5 -88q-233 0 -374.5 153.5t-141.5 407.5zM287 1262l235 376h168l235 -376h-116l-203 260l-203 -260 h-116zM317 618h576q-6 186 -78.5 280.5t-208.5 94.5q-127 0 -200 -95t-89 -280z" />
<glyph unicode="&#xeb;" horiz-adv-x="1212" d="M102 532q0 252 139 406t365 154q241 0 370 -148.5t134 -431.5h-793v-8q0 -215 81 -324.5t239 -109.5q121 0 198.5 63.5t108.5 188.5h148q-44 -175 -162.5 -263t-311.5 -88q-233 0 -374.5 153.5t-141.5 407.5zM295 1452q0 48 34.5 82.5t81.5 34.5q48 0 82.5 -34.5 t34.5 -82.5q0 -51 -33 -84t-84 -33q-50 0 -83 33t-33 84zM317 618h576q-6 186 -78.5 280.5t-208.5 94.5q-127 0 -200 -95t-89 -280zM684 1452q0 48 34.5 82.5t82.5 34.5q47 0 81.5 -34.5t34.5 -82.5q0 -51 -33 -84t-83 -33q-51 0 -84 33t-33 84z" />
<glyph unicode="&#xec;" horiz-adv-x="655" d="M-12 1636h197l260 -376h-117zM74 0v106h176v850h-176v107h360v-957h174v-106h-534z" />
<glyph unicode="&#xed;" horiz-adv-x="655" d="M74 0v106h176v850h-176v107h360v-957h174v-106h-534zM211 1262l258 376h199l-340 -376h-117z" />
<glyph unicode="&#xee;" horiz-adv-x="655" d="M11 1262l235 376h168l235 -376h-116l-203 260l-203 -260h-116zM74 0v106h176v850h-176v107h360v-957h174v-106h-534z" />
<glyph unicode="&#xef;" horiz-adv-x="655" d="M19 1452q0 48 34.5 82.5t81.5 34.5q48 0 82.5 -34.5t34.5 -82.5q0 -51 -33 -84t-84 -33q-50 0 -83 33t-33 84zM74 0v106h176v850h-176v107h360v-957h174v-106h-534zM408 1452q0 48 34.5 82.5t82.5 34.5q47 0 81.5 -34.5t34.5 -82.5q0 -51 -33 -84t-83 -33q-51 0 -84 33 t-33 84z" />
<glyph unicode="&#xf0;" horiz-adv-x="1233" d="M102 518q0 236 141 381t369 145q35 0 72.5 -3t89.5 -11q-22 53 -58.5 106.5t-86.5 108.5l-322 -149l-37 78l293 135q-61 58 -139.5 98.5t-173.5 62.5l18 86q119 -26 223.5 -73t196.5 -115l322 150l37 -78l-287 -133q183 -167 276.5 -362.5t93.5 -412.5 q0 -254 -140.5 -407.5t-373.5 -153.5q-229 0 -371.5 151.5t-142.5 395.5zM317 508q0 -210 78.5 -324t220.5 -114q144 0 221.5 114.5t77.5 327.5q0 112 -23.5 217.5t-70.5 198.5q-45 9 -85.5 13.5t-80.5 4.5q-173 0 -255.5 -107t-82.5 -331z" />
<glyph unicode="&#xf1;" horiz-adv-x="1319" d="M74 956v107h360v-189q51 108 132.5 163t189.5 55q176 0 259 -101t83 -315v-570h164v-106h-508v106h159v512q0 195 -48 267.5t-169 72.5q-128 0 -195 -93.5t-67 -272.5v-486h160v-106h-510v106h166v850h-176zM329 1309q2 135 53 208.5t142 73.5q38 0 70 -14t69 -47l57 -55 q23 -23 40 -31t38 -8q43 0 67 40t28 115h96q-2 -135 -53 -208.5t-142 -73.5q-38 0 -70 14t-69 47l-57 55q-26 24 -42.5 31.5t-35.5 7.5q-42 0 -66 -39.5t-29 -115.5h-96z" />
<glyph unicode="&#xf2;" horiz-adv-x="1233" d="M102 532q0 254 140.5 407t373.5 153t373.5 -153t140.5 -407t-140.5 -407.5t-373.5 -153.5q-232 0 -373 153.5t-141 407.5zM274 1636h197l260 -376h-117zM317 532q0 -228 76 -345t223 -117q148 0 223.5 117t75.5 345t-75.5 344.5t-223.5 116.5t-223.5 -116.5t-75.5 -344.5 z" />
<glyph unicode="&#xf3;" horiz-adv-x="1233" d="M102 532q0 254 140.5 407t373.5 153t373.5 -153t140.5 -407t-140.5 -407.5t-373.5 -153.5q-232 0 -373 153.5t-141 407.5zM317 532q0 -228 76 -345t223 -117q148 0 223.5 117t75.5 345t-75.5 344.5t-223.5 116.5t-223.5 -116.5t-75.5 -344.5zM497 1262l258 376h199 l-340 -376h-117z" />
<glyph unicode="&#xf4;" horiz-adv-x="1233" d="M102 532q0 254 140.5 407t373.5 153t373.5 -153t140.5 -407t-140.5 -407.5t-373.5 -153.5q-232 0 -373 153.5t-141 407.5zM297 1262l235 376h168l235 -376h-116l-203 260l-203 -260h-116zM317 532q0 -228 76 -345t223 -117q148 0 223.5 117t75.5 345t-75.5 344.5 t-223.5 116.5t-223.5 -116.5t-75.5 -344.5z" />
<glyph unicode="&#xf5;" horiz-adv-x="1233" d="M102 532q0 254 140.5 407t373.5 153t373.5 -153t140.5 -407t-140.5 -407.5t-373.5 -153.5q-232 0 -373 153.5t-141 407.5zM286 1309q2 135 53 208.5t142 73.5q38 0 70 -14t69 -47l57 -55q23 -23 40 -31t38 -8q43 0 67 40t28 115h96q-2 -135 -53 -208.5t-142 -73.5 q-38 0 -70 14t-69 47l-57 55q-26 24 -42.5 31.5t-35.5 7.5q-42 0 -66 -39.5t-29 -115.5h-96zM317 532q0 -228 76 -345t223 -117q148 0 223.5 117t75.5 345t-75.5 344.5t-223.5 116.5t-223.5 -116.5t-75.5 -344.5z" />
<glyph unicode="&#xf6;" horiz-adv-x="1233" d="M102 532q0 254 140.5 407t373.5 153t373.5 -153t140.5 -407t-140.5 -407.5t-373.5 -153.5q-232 0 -373 153.5t-141 407.5zM305 1452q0 48 34.5 82.5t81.5 34.5q48 0 82.5 -34.5t34.5 -82.5q0 -51 -33 -84t-84 -33q-50 0 -83 33t-33 84zM317 532q0 -228 76 -345t223 -117 q148 0 223.5 117t75.5 345t-75.5 344.5t-223.5 116.5t-223.5 -116.5t-75.5 -344.5zM694 1452q0 48 34.5 82.5t82.5 34.5q47 0 81.5 -34.5t34.5 -82.5q0 -51 -33 -84t-83 -33q-51 0 -84 33t-33 84z" />
<glyph unicode="&#xf7;" horiz-adv-x="1716" d="M217 561v162h1282v-162h-1282zM725 272q0 56 38.5 95t94.5 39q55 0 94 -39t39 -95q0 -55 -39 -94t-94 -39q-57 0 -95 38.5t-38 94.5zM725 1012q0 56 38.5 94.5t94.5 38.5q55 0 94 -39t39 -94q0 -56 -39 -94.5t-94 -38.5q-57 0 -95 38t-38 95z" />
<glyph unicode="&#xf8;" horiz-adv-x="1233" d="M76 -31l149 178q-61 77 -92 173.5t-31 211.5q0 254 140.5 407t373.5 153q94 0 174 -25.5t144 -75.5l139 166l76 -63l-145 -172q62 -74 94 -173t32 -217q0 -254 -140.5 -407.5t-373.5 -153.5q-94 0 -174 26.5t-147 80.5l-143 -172zM317 532q0 -72 7.5 -131t21.5 -108 l494 586q-38 57 -94 85.5t-130 28.5q-147 0 -223 -117t-76 -344zM391 190q40 -61 95.5 -90.5t129.5 -29.5q147 0 223 117.5t76 344.5q0 76 -7.5 136.5t-22.5 111.5z" />
<glyph unicode="&#xf9;" horiz-adv-x="1319" d="M55 956v107h351v-619q0 -194 47.5 -266t169.5 -72q128 0 195 94t67 273v483h-160v107h344v-957h174v-106h-358v188q-51 -106 -132 -161.5t-188 -55.5q-177 0 -260.5 100.5t-83.5 315.5v569h-166zM242 1636h197l260 -376h-117z" />
<glyph unicode="&#xfa;" horiz-adv-x="1319" d="M55 956v107h351v-619q0 -194 47.5 -266t169.5 -72q128 0 195 94t67 273v483h-160v107h344v-957h174v-106h-358v188q-51 -106 -132 -161.5t-188 -55.5q-177 0 -260.5 100.5t-83.5 315.5v569h-166zM465 1262l258 376h199l-340 -376h-117z" />
<glyph unicode="&#xfb;" horiz-adv-x="1319" d="M55 956v107h351v-619q0 -194 47.5 -266t169.5 -72q128 0 195 94t67 273v483h-160v107h344v-957h174v-106h-358v188q-51 -106 -132 -161.5t-188 -55.5q-177 0 -260.5 100.5t-83.5 315.5v569h-166zM265 1262l235 376h168l235 -376h-116l-203 260l-203 -260h-116z" />
<glyph unicode="&#xfc;" horiz-adv-x="1319" d="M55 956v107h351v-619q0 -194 47.5 -266t169.5 -72q128 0 195 94t67 273v483h-160v107h344v-957h174v-106h-358v188q-51 -106 -132 -161.5t-188 -55.5q-177 0 -260.5 100.5t-83.5 315.5v569h-166zM273 1452q0 48 34.5 82.5t81.5 34.5q48 0 82.5 -34.5t34.5 -82.5 q0 -51 -33 -84t-84 -33q-50 0 -83 33t-33 84zM662 1452q0 48 34.5 82.5t82.5 34.5q47 0 81.5 -34.5t34.5 -82.5q0 -51 -33 -84t-83 -33q-51 0 -84 33t-33 84z" />
<glyph unicode="&#xfd;" horiz-adv-x="1157" d="M-6 956v107h489v-107h-170l299 -731l299 731h-159v107h399v-107h-119l-487 -1196q-50 -124 -111 -169.5t-172 -45.5q-47 0 -96.5 8t-99.5 23v203h94q6 -68 34.5 -97.5t88.5 -29.5q55 0 88.5 30.5t70.5 122.5l70 177l-397 974h-121zM461 1262l258 376h199l-340 -376h-117z " />
<glyph unicode="&#xfe;" horiz-adv-x="1311" d="M59 -319h177v1769h-177v106h361v-659q54 100 137.5 147.5t206.5 47.5q196 0 320 -155t124 -405t-124 -405.5t-320 -155.5q-123 0 -206.5 47.5t-137.5 147.5v-485h174v-107h-535v107zM420 479q0 -192 73.5 -292.5t213.5 -100.5q141 0 213.5 113t72.5 333q0 221 -72.5 333 t-213.5 112q-140 0 -213.5 -101t-73.5 -292v-105z" />
<glyph unicode="&#xff;" horiz-adv-x="1157" d="M-6 956v107h489v-107h-170l299 -731l299 731h-159v107h399v-107h-119l-487 -1196q-50 -124 -111 -169.5t-172 -45.5q-47 0 -96.5 8t-99.5 23v203h94q6 -68 34.5 -97.5t88.5 -29.5q55 0 88.5 30.5t70.5 122.5l70 177l-397 974h-121zM269 1452q0 48 34.5 82.5t81.5 34.5 q48 0 82.5 -34.5t34.5 -82.5q0 -51 -33 -84t-84 -33q-50 0 -83 33t-33 84zM658 1452q0 48 34.5 82.5t82.5 34.5q47 0 81.5 -34.5t34.5 -82.5q0 -51 -33 -84t-83 -33q-51 0 -84 33t-33 84z" />
<glyph unicode="&#x152;" horiz-adv-x="2329" d="M119 750q0 351 215.5 547t601.5 196h1212v-332h-123v209h-686v-500h492v187h121v-496h-121v187h-492v-625h703v209h123v-332h-1229q-385 0 -601 198t-216 552zM348 750q0 -311 155.5 -477.5t446.5 -166.5h187v1280h-187q-292 0 -447 -164t-155 -472z" />
<glyph unicode="&#x153;" horiz-adv-x="2025" d="M102 532q0 254 140.5 407t373.5 153q132 0 235 -49.5t173 -145.5q73 96 173 145.5t222 49.5q242 0 370.5 -148.5t133.5 -431.5h-793v-8q0 -215 81 -324.5t239 -109.5q121 0 198.5 63.5t108.5 188.5h148q-44 -175 -162.5 -263t-310.5 -88q-130 0 -233.5 49t-176.5 146 q-69 -96 -172.5 -145.5t-233.5 -49.5q-232 0 -373 153.5t-141 407.5zM317 532q0 -228 76 -345t223 -117q148 0 223.5 117t75.5 345t-75.5 344.5t-223.5 116.5t-223.5 -116.5t-75.5 -344.5zM1130 618h576q-6 186 -78.5 280.5t-208.5 94.5q-127 0 -200 -95t-89 -280z" />
<glyph unicode="&#x178;" horiz-adv-x="1352" d="M-23 1386v107h555v-107h-174l373 -604l373 604h-168v107h434v-107h-141l-449 -724v-556h191v-106h-584v106h191v537l-461 743h-140zM365 1768q0 46 34.5 81t81.5 35q48 0 82.5 -35t34.5 -81q0 -50 -33.5 -83.5t-83.5 -33.5q-49 0 -82.5 33.5t-33.5 83.5zM754 1768 q0 46 34.5 81t82.5 35q47 0 81.5 -35t34.5 -81q0 -50 -33.5 -83.5t-82.5 -33.5q-50 0 -83.5 33.5t-33.5 83.5z" />
<glyph unicode="&#x2c6;" horiz-adv-x="1024" d="M193 1262l235 376h168l235 -376h-116l-203 260l-203 -260h-116z" />
<glyph unicode="&#x2dc;" horiz-adv-x="1024" d="M182 1309q2 135 53 208.5t142 73.5q38 0 70 -14t69 -47l57 -55q23 -23 40 -31t38 -8q43 0 67 40t28 115h96q-2 -135 -53 -208.5t-142 -73.5q-38 0 -70 14t-69 47l-57 55q-26 24 -42.5 31.5t-35.5 7.5q-42 0 -66 -39.5t-29 -115.5h-96z" />
<glyph unicode="&#x2000;" horiz-adv-x="950" />
<glyph unicode="&#x2001;" horiz-adv-x="1901" />
<glyph unicode="&#x2002;" horiz-adv-x="950" />
<glyph unicode="&#x2003;" horiz-adv-x="1901" />
<glyph unicode="&#x2004;" horiz-adv-x="633" />
<glyph unicode="&#x2005;" horiz-adv-x="475" />
<glyph unicode="&#x2006;" horiz-adv-x="316" />
<glyph unicode="&#x2007;" horiz-adv-x="316" />
<glyph unicode="&#x2008;" horiz-adv-x="237" />
<glyph unicode="&#x2009;" horiz-adv-x="380" />
<glyph unicode="&#x200a;" horiz-adv-x="105" />
<glyph unicode="&#x2010;" horiz-adv-x="692" d="M90 471v156h512v-156h-512z" />
<glyph unicode="&#x2011;" horiz-adv-x="692" d="M90 471v156h512v-156h-512z" />
<glyph unicode="&#x2012;" horiz-adv-x="692" d="M90 471v156h512v-156h-512z" />
<glyph unicode="&#x2013;" horiz-adv-x="1024" d="M0 477v133h1024v-133h-1024z" />
<glyph unicode="&#x2014;" horiz-adv-x="2048" d="M0 477v133h2048v-133h-2048z" />
<glyph unicode="&#x2018;" horiz-adv-x="651" d="M209 1014q1 174 63.5 294.5t198.5 211.5l78 -80q-77 -64 -111.5 -149t-34.5 -214v-63h-194z" />
<glyph unicode="&#x2019;" horiz-adv-x="651" d="M145 1067q78 63 113 149t35 216v61h194q-1 -173 -64 -294t-200 -212z" />
<glyph unicode="&#x201a;" horiz-adv-x="651" d="M90 -199q95 69 138.5 162.5t43.5 226.5v37h197q-8 -171 -80.5 -293.5t-218.5 -212.5z" />
<glyph unicode="&#x201c;" horiz-adv-x="1047" d="M209 1014q1 174 63.5 294.5t198.5 211.5l78 -80q-77 -64 -111.5 -149t-34.5 -214v-63h-194zM604 1014q2 175 64 295t198 211l78 -80q-76 -64 -110.5 -149t-34.5 -214v-63h-195z" />
<glyph unicode="&#x201d;" horiz-adv-x="1047" d="M145 1067q78 63 113 149t35 216v61h194q-1 -173 -64 -294t-200 -212zM543 1067q76 63 110.5 148.5t34.5 214.5v63h194q-1 -175 -63.5 -295t-197.5 -211z" />
<glyph unicode="&#x201e;" horiz-adv-x="1061" d="M90 -199q95 69 138.5 162.5t43.5 226.5v37h197q-8 -171 -80.5 -293.5t-218.5 -212.5zM485 -199q95 69 139 162.5t44 226.5v37h196q-7 -171 -79.5 -293.5t-219.5 -212.5z" />
<glyph unicode="&#x2022;" horiz-adv-x="1208" d="M307 762q0 124 86.5 209.5t212.5 85.5q124 0 209.5 -85.5t85.5 -209.5q0 -125 -86.5 -212t-210.5 -87t-210.5 86.5t-86.5 212.5z" />
<glyph unicode="&#x2026;" horiz-adv-x="2048" d="M209 104q0 56 38.5 95t94.5 39q55 0 94 -39t39 -95q0 -55 -39 -94t-94 -39q-57 0 -95 38.5t-38 94.5zM891 104q0 56 38.5 95t94.5 39q55 0 94 -39t39 -95q0 -55 -39 -94t-94 -39q-57 0 -95 38.5t-38 94.5zM1573 104q0 56 38.5 95t94.5 39q55 0 94 -39t39 -95 q0 -55 -39 -94t-94 -39q-57 0 -95 38.5t-38 94.5z" />
<glyph unicode="&#x202f;" horiz-adv-x="380" />
<glyph unicode="&#x2039;" horiz-adv-x="819" d="M158 559v82l469 418v-115l-297 -344l297 -344v-115z" />
<glyph unicode="&#x203a;" horiz-adv-x="819" d="M193 141v115l296 344l-296 344v115l469 -418v-82z" />
<glyph unicode="&#x205f;" horiz-adv-x="475" />
<glyph unicode="&#x20ac;" d="M-8 539l45 104h135q-1 15 -2 39q-2 49 -2 63q0 34 1 58t3 47h-180l45 104h145q47 264 182.5 415t325.5 151q99 0 198.5 -31t223.5 -100v-342h-106q-20 180 -96.5 277t-198.5 97q-136 0 -218.5 -119t-103.5 -348h504l-47 -104h-463q-1 -14 -2 -37q-2 -51 -2 -68 q0 -9 1 -43t1 -59h375l-47 -104h-320q23 -230 105 -349.5t217 -119.5q116 0 191.5 83.5t101.5 241.5h133q-43 -205 -158.5 -314.5t-288.5 -109.5q-189 0 -325 152t-183 416h-190z" />
<glyph unicode="&#x2122;" horiz-adv-x="2048" d="M242 1323v170h557v-170h-68v104h-153v-446h86v-66h-287v66h86v446h-156v-104h-65zM885 915v66h86v446h-86v66h233l174 -270l181 270h219v-66h-86v-446h86v-66h-285v66h86v426l-209 -311h-43l-199 311v-426h84v-66h-241z" />
<glyph unicode="&#x25fc;" horiz-adv-x="1065" d="M0 0v1065h1065v-1065h-1065z" />
<glyph unicode="&#xfb01;" horiz-adv-x="1366" d="M74 0v106h176v850h-176v107h176v96q0 197 117 297t346 100q87 0 178 -13t180 -40v-217l-94 1q-3 86 -64 128.5t-184 42.5q-153 0 -224 -71t-71 -224v-100h711v-957h174v-106h-535v106h177v850h-527v-850h174v-106h-534z" />
<glyph unicode="&#xfb02;" horiz-adv-x="1366" d="M74 0v106h176v850h-176v107h176v96q0 201 119.5 299t363.5 98h397v-1450h175v-106h-535v106h176v1344h-215q-163 0 -230 -65t-67 -222v-100h295v-107h-295v-850h174v-106h-534z" />
</font>
</defs>
</svg>
