<?xml version="1.0" standalone="no"?>
<!DOCTYPE svg PUBLIC "-//W3C//DTD SVG 1.1//EN" "http://www.w3.org/Graphics/SVG/1.1/DTD/svg11.dtd" >
<svg>
<metadata>
Created by FontForge 20110222 at Mon Apr 22 05:22:19 2013
 By Orthosie Webmaster
Avalon is a CopyRight (c) 1991, Corel Systems Corporation. All rights reserved
</metadata>
<defs>
<font id="AvalonRegular" horiz-adv-x="555" >
  <font-face 
    font-family="AvalonRegular"
    font-weight="400"
    font-stretch="normal"
    units-per-em="1000"
    panose-1="2 0 5 3 0 0 0 0 0 0"
    ascent="800"
    descent="-200"
    x-height="547"
    cap-height="740"
    bbox="-76 -230.778 1150.66 988"
    underline-thickness="50"
    underline-position="-75"
    unicode-range="U+0020-2122"
  />
<missing-glyph horiz-adv-x="500" 
d="M40 667h420v-667h-420v667zM60 647v-627h380v627h-380z" />
    <glyph glyph-name=".notdef" horiz-adv-x="500" 
d="M40 667h420v-667h-420v667zM60 647v-627h380v627h-380z" />
    <glyph glyph-name="glyph1" horiz-adv-x="0" 
 />
    <glyph glyph-name="nonmarkingreturn" horiz-adv-x="333" 
 />
    <glyph glyph-name="space" unicode=" " horiz-adv-x="277" 
 />
    <glyph glyph-name="exclam" unicode="!" horiz-adv-x="295" 
d="M111 740h75v-547h-75v547zM111 0v127h75v-127h-75z" />
    <glyph glyph-name="quotedbl" unicode="&#x22;" horiz-adv-x="309" 
d="M74 514v226h53v-226h-53zM186 514v226h50v-226h-50z" />
    <glyph glyph-name="numbersign" unicode="#" 
d="M225 490l74 250h41l-72 -250h89l75 250h41l-75 -250h153l-18 -58h-150l-37 -123h150l-16 -59h-152l-72 -250h-43l74 250h-90l-74 -250h-43l74 250h-148l15 59h151l35 123h-150l17 58h151zM250 432l-37 -123h90l37 123h-90z" />
    <glyph glyph-name="dollar" unicode="$" 
d="M246 727v82h65v-82q63 -7 112 -56t50 -126h-71q-6 44 -29 80t-92 37q-48 0 -77.5 -33t-31.5 -78q2 -39 29 -71.5t78 -43.5q89 -21 145 -72.5t56 -131.5q0 -75 -48 -137.5t-121 -65.5v-82h-65v82q-93 16 -133.5 80t-36.5 120h70q5 -135 133 -135q49 0 89 39t40 92
q0 40 -21 74q-26 37 -112 64.5t-130 63t-45 134.5q-2 53 37 104t109 62z" />
    <glyph glyph-name="percent" unicode="%" horiz-adv-x="775" 
d="M47 686q21 32 59 48t80 16q73 0 123 -49t50 -123q0 -72 -49.5 -122.5t-123.5 -53.5q-73 3 -122 54t-52 124q3 59 35 106zM84 580q0 -50 30 -77.5t72 -29.5q44 2 75 31t28 80q-1 46 -30 70t-71 24q-43 0 -73.5 -26t-30.5 -72zM514 740h72l-332 -740h-72zM705 283
q45 -51 45 -127q0 -70 -52.5 -120t-123.5 -50q-68 0 -118.5 51.5t-53.5 118.5q5 75 53.5 128.5t120.5 53.5q81 0 129 -55zM475 166q-1 -49 28.5 -77t74.5 -30q45 2 75 30.5t29 80.5q-1 45 -31.5 70.5t-74.5 25.5q-41 0 -70.5 -27t-30.5 -73z" />
    <glyph glyph-name="ampersand" unicode="&#x26;" horiz-adv-x="758" 
d="M164 113q50 -53 117 -56q112 4 176 150l-176 172q-70 -28 -111.5 -72.5t-42.5 -97.5q3 -48 37 -96zM303 463q65 23 94 54t29 67q0 41 -30 68.5t-72 27.5q-49 0 -77 -27t-28 -63q0 -57 84 -127zM170 672q24 37 63.5 57.5t86.5 20.5q46 0 87 -22.5t67 -63t26 -84.5
q0 -53 -40 -100t-105 -70l141 -139l106 209h84l-137 -259l185 -184l-50 -51l-170 164q-32 -73 -96.5 -118.5t-136.5 -45.5q-88 0 -154.5 67.5t-69.5 157.5q1 72 47 133t119 94q-77 69 -80 150q3 45 27 84z" />
    <glyph glyph-name="quotesingle" unicode="'" horiz-adv-x="352" 
d="M180 740h74l-88 -193h-74z" />
    <glyph glyph-name="parenleft" unicode="(" horiz-adv-x="369" 
d="M57 320q1 62 23 129.5t60 127t89.5 103t106.5 60.5v-64q-45 -25 -89.5 -72t-77.5 -119.5t-36 -162.5q-2 -64 17 -135t64.5 -137.5t121.5 -110.5v-66q-89 34 -152 106t-95.5 165.5t-31.5 175.5z" />
    <glyph glyph-name="parenright" unicode=")" horiz-adv-x="369" 
d="M314 320q1 -82 -31.5 -175.5t-95.5 -165.5t-152 -106v66q76 44 121.5 110.5t64.5 137.5t17 135q-3 90 -36 162.5t-77.5 119.5t-89.5 72v64q76 -23 139.5 -90.5t101 -158t38.5 -171.5z" />
    <glyph glyph-name="asterisk" unicode="*" horiz-adv-x="426" 
d="M168 633l-55 92l49 27l51 -90l55 90l46 -27l-54 -92h101v-51h-101l54 -88l-46 -27l-55 90l-51 -90l-49 27l55 88h-104v51h104z" />
    <glyph glyph-name="plus" unicode="+" horiz-adv-x="605" 
d="M51 266v76h215v213h76v-213h215v-76h-215v-217h-76v217h-215z" />
    <glyph glyph-name="comma" unicode="," horiz-adv-x="277" 
d="M180 127h74l-90 -193h-72z" />
    <glyph glyph-name="hyphen" unicode="-" horiz-adv-x="332" 
d="M31 334h272v-66h-272v66z" />
    <glyph glyph-name="period" unicode="." horiz-adv-x="277" 
d="M102 0v135h80v-135h-80z" />
    <glyph glyph-name="slash" unicode="/" horiz-adv-x="438" 
d="M41 -127l289 867h68l-293 -867h-64z" />
    <glyph glyph-name="zero" unicode="0" 
d="M31 494q0 76 34.5 135.5t91.5 91t118 31.5q73 0 130.5 -35.5t89.5 -95.5t30 -131v-254q-1 -59 -22 -105.5t-57.5 -80t-79.5 -49t-91 -15.5q-105 1 -174.5 75.5t-69.5 176.5v256zM104 473v-215q0 -90 46.5 -144.5t122.5 -54.5q70 0 123.5 44t54.5 131v245q1 95 -46.5 148
t-129.5 53q-170 -12 -171 -207z" />
    <glyph glyph-name="one" unicode="1" 
d="M281 674h-125v66h199v-740h-74v674z" />
    <glyph glyph-name="two" unicode="2" 
d="M37 500q1 84 34.5 140t86.5 83t119 29q55 0 109 -29.5t86 -81t32 -114.5q0 -111 -104 -209l-265 -250h369v-68h-471v66l330 321q69 69 69 140q0 41 -21 76t-55 55.5t-71 21.5q-35 5 -77.5 -12.5t-69.5 -59t-27 -108.5h-74z" />
    <glyph glyph-name="three" unicode="3" 
d="M82 557q3 91 57 143t127 52q53 0 95.5 -25.5t68 -68.5t25.5 -94q0 -89 -72 -138q57 -30 89 -82t32 -112q0 -99 -68.5 -171.5t-165.5 -72.5q-94 0 -165 65.5t-74 178.5h76q10 -85 54 -128t103 -45q65 2 115 47t51 115q0 81 -55.5 124.5t-140.5 43.5h-13v64
q63 -2 112.5 24.5t49.5 88.5q3 48 -31.5 81t-83.5 33q-40 0 -72 -30t-42 -93h-72z" />
    <glyph glyph-name="four" unicode="4" 
d="M369 740h92v-537h66v-66h-66v-137h-74v137h-373v66zM387 639l-289 -436h289v436z" />
    <glyph glyph-name="five" unicode="5" 
d="M133 740h334v-68h-274l-37 -203q62 33 129 33q66 0 122 -37t88 -97t32 -124q0 -99 -68.5 -177t-167.5 -79q-103 -2 -182 62t-86 182h77q6 -68 59 -122t118 -55q49 1 89 28t62.5 69t22.5 92q0 75 -48.5 131.5t-121.5 56.5q-44 0 -85 -20t-71 -57l-59 22z" />
    <glyph glyph-name="six" unicode="6" 
d="M84 426l211 314h86l-174 -258q33 16 80 16q69 0 126.5 -39.5t89.5 -103t26 -126.5q-8 -99 -76 -170t-180 -71q-103 0 -171.5 76t-76.5 180q4 96 59 182zM137 363q-34 -41 -37 -113q2 -75 49.5 -133t129.5 -58q67 0 121.5 54.5t54.5 130.5q0 75 -53 130.5t-129 55.5
q-87 0 -136 -67z" />
    <glyph glyph-name="seven" unicode="7" 
d="M109 0l305 674h-350v66h428v-66l-304 -674h-79z" />
    <glyph glyph-name="eight" unicode="8" 
d="M275 -14q-104 0 -169.5 73t-62.5 156q2 65 34 120t89 79q-39 19 -61.5 59t-24.5 88q2 77 53.5 133.5t145.5 57.5q56 1 100.5 -26t69 -72.5t24.5 -92.5q0 -46 -21 -84.5t-65 -64.5q61 -28 93 -80t34 -109q1 -61 -30.5 -116.5t-87 -88t-121.5 -32.5zM154 561
q3 -56 41.5 -88t85.5 -30q46 3 82.5 37t36.5 81q0 53 -37 87t-88 34q-48 -2 -86 -35t-35 -86zM160 324q-42 -48 -45 -111q3 -66 49 -109.5t111 -46.5q67 3 115 48.5t48 111.5t-49.5 110t-115.5 44q-71 0 -113 -47z" />
    <glyph glyph-name="nine" unicode="9" 
d="M104 680q70 72 175 72q70 0 126.5 -37.5t89 -99.5t32.5 -129q0 -87 -47 -156l-220 -330h-88l176 256q-39 -17 -88 -20q-67 1 -120.5 40t-83.5 99t-33 127q3 103 81 178zM188 656q-85 -64 -88 -162q3 -74 53 -127t124 -56q73 2 125.5 48t52.5 133q0 55 -23 97t-63.5 66.5
t-89.5 24.5q-44 0 -91 -24z" />
    <glyph glyph-name="colon" unicode=":" horiz-adv-x="277" 
d="M102 127h74v-127h-74v127zM102 510h74v-125h-74v125z" />
    <glyph glyph-name="semicolon" unicode=";" horiz-adv-x="277" 
d="M129 385v125h74v-125h-74zM41 -66l88 193h74l-88 -193h-74z" />
    <glyph glyph-name="less" unicode="&#x3c;" horiz-adv-x="605" 
d="M49 334l510 232v-74l-414 -191l414 -192v-72l-510 233v64z" />
    <glyph glyph-name="equal" unicode="=" horiz-adv-x="605" 
d="M51 436h504v-75h-504v75zM555 242v-76h-504v76h504z" />
    <glyph glyph-name="greater" unicode="&#x3e;" horiz-adv-x="605" 
d="M561 332v-62l-510 -233v72l414 192l-414 191v72z" />
    <glyph glyph-name="question" unicode="?" horiz-adv-x="592" 
d="M264 127h74v-127h-74v127zM64 508q0 112 65.5 175.5t155.5 68.5q59 3 115 -23t90 -77.5t35 -124.5q1 -48 -22.5 -85.5t-70.5 -84.5t-70.5 -82t-23.5 -82h-74q1 67 26.5 109.5t76 90.5t69 73t15.5 69q-4 74 -54.5 112t-115.5 35q-57 -3 -101 -52t-45 -122h-71z" />
    <glyph glyph-name="at" unicode="@" horiz-adv-x="867" 
d="M438 752q76 5 156 -24.5t138 -100.5t65 -182q6 -77 -30 -148t-92 -114.5t-111 -45.5q-58 3 -87 54q-51 -47 -120 -50q-45 2 -79.5 25t-48.5 61q-11 28 -14 76q2 105 73 200t173 95q42 0 74.5 -18t42.5 -49l16 47h68l-113 -342q-6 -19 2 -30t27 -13q33 2 70.5 28
t66.5 79.5t33 129.5q3 63 -31.5 126.5t-104 105t-159.5 41.5h-2q-69 0 -131 -29t-106.5 -76.5t-67.5 -105.5t-23 -117q1 -103 46.5 -180t119.5 -116.5t160 -41.5q79 2 152 37t122 102h58q-54 -92 -141 -139t-185 -47q-95 0 -183 44.5t-143 128t-59 198.5q-3 105 46 193
t134 140.5t188 57.5zM357 479q-18 -17 -41.5 -74.5t-24.5 -105.5q3 -72 51 -88q48 -17 91.5 22t71.5 105.5t28 120.5q0 34 -15 56t-49 22q-58 0 -112 -58z" />
    <glyph glyph-name="A" unicode="A" horiz-adv-x="740" 
d="M330 740h82l318 -740h-80l-109 248h-342l-107 -248h-80zM371 654l-144 -338h287z" />
    <glyph glyph-name="B" unicode="B" horiz-adv-x="574" 
d="M268 740q109 0 170 -52t66 -131q6 -98 -78 -162q60 -30 89.5 -75.5t29.5 -120.5q0 -80 -65 -139.5t-173 -59.5h-231v740h192zM150 672v-248h120q68 0 116.5 32t45.5 97q-4 61 -47.5 90t-113.5 29h-121zM150 357v-291h135q184 0 184 149q0 71 -52.5 106.5t-143.5 35.5
h-123z" />
    <glyph glyph-name="C" unicode="C" horiz-adv-x="813" 
d="M47 422q12 100 68 174.5t140 115t175 40.5q103 0 193 -51t145 -150h-82q-97 127 -252 127q-82 0 -156 -39.5t-117 -110.5t-42 -161q1 -89 45 -159.5t116 -109.5t152 -41q160 3 257 136h82q-39 -68 -93 -114t-117 -68.5t-129 -22.5q-106 0 -200.5 54.5t-146.5 154
t-38 225.5z" />
    <glyph glyph-name="D" unicode="D" horiz-adv-x="744" 
d="M76 0v740h201q137 0 233 -50.5t144.5 -137t46.5 -189.5q-1 -109 -55 -192t-143.5 -127t-186.5 -44h-240zM150 674v-606h114q154 0 253.5 73t109.5 222q8 123 -83 217t-267 94h-127z" />
    <glyph glyph-name="E" unicode="E" horiz-adv-x="535" 
d="M76 0v740h404v-68h-330v-266h319v-66h-319v-274h330v-66h-404z" />
    <glyph glyph-name="F" unicode="F" horiz-adv-x="484" 
d="M76 0v740h375v-68h-301v-266h289v-66h-289v-340h-74z" />
    <glyph glyph-name="G" unicode="G" horiz-adv-x="871" 
d="M45 369q1 118 57 204t145.5 131.5t182.5 47.5q112 2 212 -53.5t145 -155.5h-86q-37 66 -112.5 103.5t-156.5 35.5q-93 -3 -165 -48.5t-110 -117t-40 -147.5q0 -91 48 -161t122 -109t145 -42q85 -4 184 52.5t126 165.5h-412v67h502q-21 -171 -137 -264t-261 -90
q-156 2 -273 113.5t-116 267.5z" />
    <glyph glyph-name="H" unicode="H" horiz-adv-x="684" 
d="M76 0v740h74v-324h385v324h72v-740h-72v348h-385v-348h-82h8z" />
    <glyph glyph-name="I" unicode="I" horiz-adv-x="227" 
d="M150 0h-74v740h74v-740z" />
    <glyph glyph-name="J" unicode="J" horiz-adv-x="482" 
d="M332 193v547h74v-535q0 -72 -27 -121t-69.5 -72.5t-96.5 -23.5q-79 0 -140 52.5t-61 135.5h72q6 -54 43 -85.5t84 -33.5q51 2 86 37t35 99z" />
    <glyph glyph-name="K" unicode="K" horiz-adv-x="592" 
d="M74 0v738h74v-425l342 425h94l-291 -361l289 -377h-92l-246 318l-96 -119v-199h-82h8z" />
    <glyph glyph-name="L" unicode="L" horiz-adv-x="463" 
d="M150 66l307 2v-68h-381v740h74v-674z" />
    <glyph glyph-name="M" unicode="M" horiz-adv-x="920" 
d="M76 0v740h115l270 -631l269 631h114v-740h-74v658l-278 -658h-64l-278 658v-658h-74z" />
    <glyph glyph-name="N" unicode="N" horiz-adv-x="740" 
d="M150 0h-74v740h100l414 -613v613h74v-740h-74l-440 650v-650z" />
    <glyph glyph-name="O" unicode="O" horiz-adv-x="869" 
d="M45 377q2 69 30.5 136.5t78.5 120.5t122.5 85.5t155.5 32.5q106 0 198 -52t144.5 -143t51.5 -196q-1 -109 -60 -196t-151.5 -134t-188.5 -45q-95 3 -184 52.5t-143.5 138t-53.5 200.5zM119 381q1 -112 52 -186t122 -106t139 -30q117 2 214.5 78t105.5 226q4 89 -40 162.5
t-120.5 115t-157.5 41.5q-85 0 -158.5 -45t-115.5 -115t-41 -141z" />
    <glyph glyph-name="P" unicode="P" horiz-adv-x="592" 
d="M76 0v740h194q133 0 211 -47t85 -162q6 -67 -25.5 -120t-92 -82.5t-137.5 -29.5h-161v-299h-74zM150 674v-309h153q100 0 146 47t43 119q-4 79 -60.5 111t-152.5 32h-129z" />
    <glyph glyph-name="Q" unicode="Q" horiz-adv-x="871" 
d="M53 445q37 150 143.5 227.5t241.5 79.5q73 2 142 -20.5t124.5 -67t91 -112.5t42.5 -157v-38q0 -164 -123 -265q42 -34 94 -37q7 2 19 2v-69q-45 -4 -89.5 13.5t-76.5 49.5q-113 -67 -228 -67q-105 0 -195.5 55t-142 143t-53.5 185q4 52 10 78zM131 279q77 26 158 26
q207 0 375 -162q102 86 102 218q0 37 -6 67q-15 75 -58 132t-110.5 89t-150.5 33q-62 0 -119.5 -23.5t-102.5 -66.5t-72 -100.5t-28 -126.5q3 -41 12 -86zM160 217q50 -82 123 -120t156 -40q100 3 165 45q-70 68 -156 102t-169 34q-62 0 -119 -21z" />
    <glyph glyph-name="R" unicode="R" horiz-adv-x="607" 
d="M76 0v740h199q173 0 234 -66.5t69 -163.5q5 -58 -22.5 -112t-79.5 -87.5t-117 -33.5l209 -277h-93l-252 336h62q98 -3 158.5 41.5t60.5 124.5t-60.5 125t-144.5 45h-149v-672h-74z" />
    <glyph glyph-name="S" unicode="S" horiz-adv-x="498" 
d="M102 207q4 -70 49.5 -110t106.5 -38q56 0 100 42t44 100q0 46 -23 82q-26 40 -131 72.5t-156.5 70.5t-44.5 146q4 79 64 129.5t141 50.5q89 0 147 -60.5t58 -128.5v-10h-74q-8 62 -43.5 92t-85.5 35q-47 6 -88.5 -28.5t-44.5 -83.5q-4 -71 31 -97.5t114.5 -47.5
t131.5 -55t73 -116q4 -28 4 -47q0 -83 -59 -150t-162 -67q-67 -1 -121 28.5t-83 79.5t-29 111h81z" />
    <glyph glyph-name="T" unicode="T" horiz-adv-x="426" 
d="M178 0v674h-170v66h412v-66h-168v-674h-74z" />
    <glyph glyph-name="U" unicode="U" horiz-adv-x="654" 
d="M76 246v494h74v-490q0 -89 54 -141t124 -54q75 2 126.5 56t51.5 155v474h74v-472q0 -89 -35 -153t-93 -95.5t-124 -31.5q-100 0 -176 69.5t-76 188.5z" />
    <glyph glyph-name="V" unicode="V" horiz-adv-x="701" 
d="M314 0l-304 740h82l258 -648l261 648h82l-308 -740h-71z" />
    <glyph glyph-name="W" unicode="W" horiz-adv-x="961" 
d="M693 96l182 644h76l-211 -740h-97l-163 605l-164 -605h-95l-211 740h76l182 -644l177 644h71z" />
    <glyph glyph-name="X" unicode="X" horiz-adv-x="609" 
d="M8 0l252 379l-237 361h86l196 -297l195 297h86l-238 -361l254 -379h-86l-211 316l-209 -316h-88z" />
    <glyph glyph-name="Y" unicode="Y" horiz-adv-x="592" 
d="M260 0v248l-258 492h80l215 -416l213 416h82l-260 -492v-248h-72z" />
    <glyph glyph-name="Z" unicode="Z" horiz-adv-x="480" 
d="M381 674h-354v66h436v-66l-361 -608h373v-66h-457v66z" />
    <glyph glyph-name="bracketleft" unicode="[" horiz-adv-x="352" 
d="M184 471v-325q0 -50 14 -84.5t35 -56.5t44 -35.5t36 -20.5v-76q-44 9 -90 43t-79 90.5t-33 124.5v328q0 94 47.5 170t155.5 111v-76q-46 -16 -88 -65t-42 -128z" />
    <glyph glyph-name="backslash" unicode="\" horiz-adv-x="605" 
d="M84 740h72l309 -740h-69z" />
    <glyph glyph-name="bracketright" unicode="]" horiz-adv-x="352" 
d="M168 471q0 79 -42.5 128.5t-88.5 64.5v76q108 -35 155.5 -111t47.5 -170v-328q0 -101 -66.5 -173t-134.5 -85v76q11 6 35 20t45 36t35 57.5t14 83.5v325z" />
    <glyph glyph-name="asciicircum" unicode="^" horiz-adv-x="605" 
d="M18 182l255 558h57l258 -558h-63l-224 482l-219 -482h-64z" />
    <glyph glyph-name="underscore" unicode="_" horiz-adv-x="500" 
d="M0 -66h500v-59h-500v59z" />
    <glyph glyph-name="grave" unicode="`" horiz-adv-x="379" 
d="M74 719l31 60l200 -107l-34 -59z" />
    <glyph glyph-name="a" unicode="a" horiz-adv-x="684" 
d="M41 270q1 89 43.5 155t109.5 102t140 34q150 -4 215 -120v106h72v-547h-72v104q-31 -56 -91.5 -87.5t-129.5 -28.5q-73 1 -140 37t-107 99t-40 146zM117 287q-3 -49 13.5 -91t47 -72.5t70 -46.5t80.5 -18q94 -1 157.5 64t63.5 147q0 90 -61 152t-150 66q-61 3 -112 -28
t-80 -80t-29 -93z" />
    <glyph glyph-name="b" unicode="b" horiz-adv-x="682" 
d="M63 0v740h76v-297q28 49 84 82t123 36q82 1 149 -38.5t105.5 -102t40.5 -125.5q2 -60 -16 -114t-54 -97.5t-89 -69t-119 -28.5q-76 -1 -136 27.5t-94 82.5v-96h-70zM133 291q0 -98 55.5 -164.5t172.5 -67.5q83 0 144 63.5t61 162.5q0 55 -31 102t-82.5 74t-104.5 27
q-42 2 -92.5 -21t-86.5 -68.5t-36 -107.5z" />
    <glyph glyph-name="c" unicode="c" horiz-adv-x="646" 
d="M43 275q1 86 42 150t104 98.5t135 37.5q89 3 168.5 -41t116.5 -137h-84q-21 35 -52.5 60t-70 36.5t-78.5 8.5q-93 -6 -149 -68.5t-58 -144.5q-1 -88 60 -150.5t155 -65.5q61 -1 114 28t81 73h82q-90 -172 -273 -172q-74 0 -141.5 36.5t-110 101t-43.5 145.5q2 2 2 3v1z
" />
    <glyph glyph-name="d" unicode="d" horiz-adv-x="686" 
d="M43 299q7 76 48.5 135.5t104 92.5t126.5 34q72 0 131 -26.5t96 -83.5v289h74v-740h-70v104q-85 -125 -227 -116q-73 3 -140.5 42.5t-108.5 110.5t-34 158zM119 305q-14 -90 50 -167.5t163 -78.5q54 0 105.5 27t83.5 78.5t32 118.5q0 38 -23.5 86.5t-73.5 83.5t-124 35
q-41 0 -85.5 -18t-80.5 -59.5t-47 -105.5z" />
    <glyph glyph-name="e" unicode="e" horiz-adv-x="650" 
d="M43 277q3 128 88 205t195 79q69 0 135 -34t108 -102.5t42 -162.5v-14h-494q7 -90 71 -139.5t136 -49.5q62 0 119 34.5t77 86.5h76q-25 -65 -70 -109t-98.5 -64.5t-107.5 -18.5q-73 3 -138 39.5t-102.5 102.5t-36.5 147zM539 314q-14 73 -72.5 124.5t-138.5 51.5
q-71 0 -118 -33.5t-69 -76t-24 -66.5h422z" />
    <glyph glyph-name="f" unicode="f" horiz-adv-x="314" 
d="M102 0v479h-84v66h84q0 193 211 193v-68q-137 4 -139 -117q2 -4 2 -8h137v-66h-137v-479h-74z" />
    <glyph glyph-name="g" unicode="g" horiz-adv-x="674" 
d="M43 275q-1 84 39 149.5t103.5 100t128.5 36.5q75 1 137.5 -32t89.5 -90v110h70v-502q0 -122 -78.5 -189t-190.5 -67q-96 0 -175 51.5t-104 145.5h72q27 -63 82.5 -96t120.5 -33q55 0 101 22.5t74 65.5t28 102v60q-65 -121 -213 -121q-69 -2 -134.5 32t-107.5 99t-43 156z
M117 289q-6 -98 56 -163t153 -67q35 0 71 12t69.5 40t54 71t20.5 101q0 53 -30.5 100.5t-81 76.5t-109.5 28q-111 -3 -157 -74.5t-46 -124.5z" />
    <glyph glyph-name="h" unicode="h" horiz-adv-x="609" 
d="M64 0v740h75v-271q57 90 168 90q60 0 116.5 -30.5t91 -86t34.5 -126.5v-316h-74v316q0 55 -24 93t-62.5 57.5t-83.5 19.5q-68 0 -117 -42.5t-49 -119.5v-324h-75z" />
    <glyph glyph-name="i" unicode="i" horiz-adv-x="199" 
d="M63 0v547h74v-547h-74zM63 613v127h74v-127h-74z" />
    <glyph glyph-name="j" unicode="j" horiz-adv-x="203" 
d="M66 31v516h75v-539q0 -71 -39 -131.5t-147 -67.5v72q51 2 81 31t30 119zM141 740v-127h-75v127h75z" />
    <glyph glyph-name="k" unicode="k" horiz-adv-x="502" 
d="M63 0v740h74v-519l252 326h93l-211 -274l227 -273h-96l-177 217l-88 -113v-104h-74z" />
    <glyph glyph-name="l" unicode="l" horiz-adv-x="199" 
d="M63 0v740h74v-740h-74z" />
    <glyph glyph-name="m" unicode="m" horiz-adv-x="938" 
d="M63 547h70v-74q21 42 59 64t87 22q58 0 110.5 -28.5t81.5 -75.5q31 52 77.5 77t97.5 25q90 0 159.5 -61.5t69.5 -153.5v-342h-72v330q0 74 -45.5 115t-109.5 41q-57 0 -98.5 -36.5t-41.5 -101.5v-348h-76v336q0 70 -46 110t-111 40q-57 0 -97.5 -38t-40.5 -110v-338h-74
v547z" />
    <glyph glyph-name="n" unicode="n" horiz-adv-x="609" 
d="M63 0v547h70v-82q29 47 74.5 70.5t99.5 23.5q96 0 168 -67t72 -183v-309h-72v309q0 86 -50.5 131.5t-121.5 45.5q-67 0 -116.5 -44.5t-49.5 -123.5v-318h-74z" />
    <glyph glyph-name="o" unicode="o" horiz-adv-x="654" 
d="M43 283q2 75 39.5 137.5t106 101t149.5 37.5q45 0 93.5 -20t87.5 -54.5t66 -83.5t30 -102q6 -83 -32.5 -155.5t-106.5 -114t-148 -41.5q-70 0 -137.5 35.5t-108 103.5t-39.5 156zM115 279q0 -98 63 -157.5t152 -64.5q49 0 97 26t80 76.5t32 119.5q0 52 -29 101.5t-78 79
t-102 28.5q-85 -2 -149.5 -62t-65.5 -147z" />
    <glyph glyph-name="p" unicode="p" horiz-adv-x="682" 
d="M66 -191v740h71v-98q73 107 209 110q73 1 142 -33.5t112.5 -98t44.5 -142.5q0 -86 -39 -154t-106 -106t-146 -39q-66 -3 -125.5 28.5t-87.5 88.5v-296h-75zM135 270q2 -78 57.5 -143t162.5 -68q54 -1 104 26.5t79.5 77.5t29.5 110q0 45 -17.5 84.5t-46.5 69.5t-71.5 47
t-84.5 14q-97 -3 -155 -67.5t-58 -150.5z" />
    <glyph glyph-name="q" unicode="q" horiz-adv-x="682" 
d="M316 561q42 3 88.5 -9t87 -39.5t59.5 -63.5v100h70v-740h-74v295q-19 -48 -84 -83.5t-135 -32.5q-118 6 -203.5 88.5t-81.5 198.5q4 84 40 146t96 97t137 43zM117 268q0 -57 29.5 -104.5t77.5 -75t104 -29.5q93 0 157 58t66 151q1 45 -13 84t-43 70.5t-71.5 48.5
t-91.5 17q-90 2 -152.5 -61.5t-64.5 -156.5q2 0 2 -0.5v-1.5z" />
    <glyph glyph-name="r" unicode="r" horiz-adv-x="301" 
d="M64 0v549h69v-82q46 94 160 94v-75q-34 1 -71 -18.5t-61 -53t-24 -76.5v-338h-73z" />
    <glyph glyph-name="s" unicode="s" horiz-adv-x="389" 
d="M39 387q-7 54 16.5 94t61.5 59t74 19q58 2 106 -37.5t51 -109.5h-75q-1 41 -25 58.5t-57 17.5q-29 0 -55 -19t-27 -57q2 -7 3.5 -14.5l2.5 -12.5q9 -33 90 -62t123.5 -64.5t30.5 -125.5q-8 -73 -59.5 -109t-110.5 -36q-75 0 -123 50t-48 122l74 2q1 -46 31.5 -75.5
t69.5 -31.5q38 3 66 30t28 65q0 35 -22 62t-68 38q-147 39 -158 137z" />
    <glyph glyph-name="t" unicode="t" horiz-adv-x="340" 
d="M127 0v480h-115v67h115v193h74v-193h127v-67h-127v-480h-74z" />
    <glyph glyph-name="u" unicode="u" horiz-adv-x="607" 
d="M63 221v326h74v-315q0 -82 48.5 -128.5t115.5 -48.5q71 2 120.5 52t49.5 141v299h74v-547h-68v86q-25 -48 -73.5 -74t-106.5 -26q-93 0 -163.5 63t-70.5 172z" />
    <glyph glyph-name="v" unicode="v" 
d="M238 0l-230 547h80l189 -453l190 453h80l-233 -547h-76z" />
    <glyph glyph-name="w" unicode="w" horiz-adv-x="830" 
d="M414 363l-115 -363h-84l-207 547h78l172 -459l127 392h60l127 -390l174 457h78l-207 -547h-86z" />
    <glyph glyph-name="x" unicode="x" horiz-adv-x="480" 
d="M8 0l187 279l-187 268h88l144 -211l147 211h86l-188 -270l188 -277h-86l-147 219l-144 -219h-88z" />
    <glyph glyph-name="y" unicode="y" horiz-adv-x="535" 
d="M219 18l-209 529h78l176 -436l185 436h78l-316 -738h-78z" />
    <glyph glyph-name="z" unicode="z" horiz-adv-x="426" 
d="M102 66h314v-66h-406v66l297 414h-287v67h376v-67z" />
    <glyph glyph-name="braceleft" unicode="{" horiz-adv-x="352" 
d="M39 307q80 20 80 84v211q0 64 29 103.5t123 34.5q-42 -13 -61 -40.5t-19 -70.5v-205q0 -98 -89 -117q89 -18 89 -106v-215q0 -56 21.5 -78.5t58.5 -34.5q-65 -5 -108.5 22.5t-43.5 90.5v239q0 34 -23.5 54.5t-56.5 27.5z" />
    <glyph glyph-name="bar" unicode="|" horiz-adv-x="672" 
d="M305 0v740h64v-740h-64z" />
    <glyph glyph-name="braceright" unicode="}" horiz-adv-x="352" 
d="M268 307q-29 -5 -54.5 -28t-25.5 -54v-239q0 -63 -43.5 -89.5t-109.5 -23.5q40 15 60 36t20 77v215q0 91 90 106q-90 19 -90 119v203q0 88 -80 111q95 7 124 -33t29 -105v-209q0 -22 9 -37.5t19 -23t30 -15.5t22 -10z" />
    <glyph glyph-name="asciitilde" unicode="~" horiz-adv-x="605" 
d="M49 262q38 56 67 83.5t83 27.5q39 0 105 -31t102 -35q37 1 60.5 24.5t47.5 59.5l43 -47q-31 -55 -66.5 -84.5t-80.5 -30.5q-54 1 -131 48q-40 24 -76 24q-66 0 -111 -88z" />
    <glyph glyph-name="exclamdown" unicode="&#xa1;" horiz-adv-x="295" 
d="M111 357h75v-548h-75v548zM111 422v125h75v-125h-75z" />
    <glyph glyph-name="cent" unicode="&#xa2;" 
d="M260 613v92h66v-92q64 -8 112.5 -47.5t71.5 -102.5h-84q-20 39 -57 58.5t-82 19.5q-44 0 -85 -21t-64 -59t-19 -88q6 -66 55 -108t111 -44q87 3 139 70h80q-22 -58 -73 -97t-105 -44v-87h-66v87q-95 10 -154 77t-61 158q-3 79 57 149t158 79z" />
    <glyph glyph-name="sterling" unicode="&#xa3;" 
d="M90 414q-17 34 -20 88q2 97 68.5 173t175.5 77q89 2 160 -57.5t81 -153.5h-71q-12 54 -55 96.5t-115 42.5q-79 0 -124 -51t-47 -121q3 -54 27 -94h287v-68h-215q72 -75 72 -162q0 -59 -33 -118q110 -4 173.5 27.5t63.5 129.5q0 29 -2 45h66q8 -44 8 -65q0 -58 -27.5 -104
t-75.5 -72.5t-108 -26.5h-320v66h140q39 59 39 116q0 93 -95 164h-125v68h72z" />
    <glyph glyph-name="currency" unicode="&#xa4;" 
d="M74 451l-43 43l53 53l43 -43q55 49 148 49q92 0 153 -49l45 45l50 -55l-43 -43q49 -78 49 -154t-49 -145l43 -43l-52 -52l-43 43q-73 -47 -155 -51q-83 3 -146 51l-45 -43l-51 52l43 43q-48 71 -51 149q3 76 51 150zM279 482q-88 1 -134.5 -56.5t-46.5 -122.5
q0 -70 50 -125.5t129 -54.5q81 0 131.5 56t48.5 126t-50.5 123t-127.5 54z" />
    <glyph glyph-name="yen" unicode="&#xa5;" 
d="M146 459l-146 281h80l217 -416l211 416h82l-145 -281h98v-63h-131l-49 -97h174v-61h-203v-238h-74v238h-207v61h177l-50 97h-133v63h99z" />
    <glyph glyph-name="brokenbar" unicode="&#xa6;" horiz-adv-x="387" 
d="M305 0v740h64v-740h-64z" />
    <glyph glyph-name="section" unicode="&#xa7;" horiz-adv-x="615" 
d="M176 492q-40 40 -43 100q2 65 49.5 112.5t122.5 47.5q41 1 83 -17.5t68 -52.5t26 -75h-68q0 32 -33 53.5t-76 21.5q-24 0 -46.5 -10t-36.5 -29t-15 -43q-6 -61 66 -96l165 -84q91 -47 91 -133q0 -75 -78 -139q49 -43 49 -113q0 -66 -47.5 -117.5t-122.5 -54.5
q-98 -6 -160 53.5t-65 149.5h71q1 -57 44.5 -95.5t95.5 -38.5q41 0 77.5 29t36.5 70q0 30 -16.5 54.5t-42.5 35.5l-207 108q-75 37 -78 115q3 84 90 148zM219 457q-63 -48 -59 -117q3 -37 74 -74l166 -84q57 42 57 97q0 61 -88 100q-58 29 -97 50t-53 28z" />
    <glyph glyph-name="dieresis" unicode="&#xa8;" horiz-adv-x="369" 
d="M74 740h74v-127h-74v127zM221 740h74v-127h-74v127z" />
    <glyph glyph-name="copyright" unicode="&#xa9;" horiz-adv-x="746" 
d="M361 752q111 4 198 -45.5t138 -133.5t59 -180q7 -99 -38.5 -193.5t-134.5 -153t-200 -58.5q-85 0 -158.5 31.5t-125 85.5t-79.5 124t-28 142q0 99 49.5 185.5t135.5 139.5t184 56zM387 594q69 0 120 -37.5t61 -107.5h-54q-22 98 -127 98q-61 2 -106 -42t-45 -126
q0 -86 46.5 -133t108.5 -47q48 0 82.5 27.5t42.5 74.5h54q-5 -41 -29 -75.5t-64 -54.5t-88 -19q-99 3 -155.5 71.5t-53.5 161.5q3 86 56 147t151 62zM369 707q-94 -1 -169 -48.5t-117 -124.5t-44 -163q-2 -85 40.5 -163t120.5 -126t179 -49q94 0 170 47.5t119 124t43 160.5
q0 91 -46.5 170t-125 125.5t-170.5 46.5z" />
    <glyph glyph-name="ordfeminine" unicode="&#xaa;" horiz-adv-x="369" 
d="M340 746v-293h-45v45h-2q-37 -55 -111 -51q-70 3 -113 52t-38 110q5 58 46 100t105 43q72 2 113 -53v47h45zM182 709q-40 -1 -72 -32.5t-34 -69.5q-3 -47 28 -81t82 -36q46 -1 77.5 33t31.5 77q0 45 -32 77.5t-81 31.5zM31 369h309v-43h-309v43z" />
    <glyph glyph-name="guillemotleft" unicode="&#xab;" horiz-adv-x="426" 
d="M213 301l113 199l59 -31l-94 -166l94 -170l-59 -31zM39 301l115 199l59 -31l-98 -168l96 -168l-57 -31z" />
    <glyph glyph-name="logicalnot" unicode="&#xac;" horiz-adv-x="605" 
d="M55 439h504v-275h-80v197h-424v78z" />
    <glyph glyph-name="registered" unicode="&#xae;" horiz-adv-x="746" 
d="M369 752q83 3 154.5 -27.5t122 -84.5t80 -122t30.5 -139q3 -97 -45.5 -187.5t-134 -147t-185.5 -56.5q-96 0 -172 32.5t-127 88t-76.5 124t-25.5 142.5q0 102 52 187t139 135t188 55zM369 705q-98 -1 -172 -47.5t-115 -122.5t-43 -156q-2 -86 40 -166t120 -130.5
t178 -51.5q6 2 14 2q90 3 164.5 53t116 131t37.5 166q-5 84 -47 158.5t-118.5 119.5t-174.5 44zM232 584h198q68 0 101 -32.5t33 -78.5q3 -51 -27 -84.5t-101 -34.5l128 -198h-60l-125 198h-96v-198h-51v428zM518 473q3 72 -110 72h-125v-150h135q44 0 71.5 15t28.5 63z" />
    <glyph glyph-name="plusminus" unicode="&#xb1;" horiz-adv-x="605" 
d="M266 393v162h76v-162h215v-77h-215v-164h-76v164h-215v77h215zM51 0v76h506v-76h-506z" />
    <glyph glyph-name="twosuperior" unicode="&#xb2;" horiz-adv-x="332" 
d="M16 598q1 75 45.5 111.5t110.5 36.5q61 0 104.5 -39t43.5 -98q0 -65 -64 -123l-168 -148h228v-41h-304v41l211 185q43 36 43 86q0 27 -12 48.5t-32 35t-44 14.5q-41 4 -75.5 -23.5t-34.5 -85.5h-52z" />
    <glyph glyph-name="threesuperior" unicode="&#xb3;" horiz-adv-x="332" 
d="M47 631q1 35 18 62.5t43.5 41t57.5 13.5q46 0 85.5 -32t39.5 -77q0 -57 -53 -86q38 -19 60 -52t22 -69q0 -59 -46 -100t-106 -43q-59 2 -106 42t-50 107h49q4 -51 33 -77.5t68 -28.5q44 2 76 29t32 69q0 50 -38 77t-97 24v39q39 -4 73 13t34 56q1 27 -21.5 46.5
t-54.5 19.5q-60 0 -74 -74h-45z" />
    <glyph glyph-name="acute" unicode="&#xb4;" horiz-adv-x="375" 
d="M74 670l194 117l35 -58l-194 -114z" />
    <glyph glyph-name="mu" unicode="&#xb5;" horiz-adv-x="607" 
d="M473 260v289h74v-549h-70v86q-36 -52 -80.5 -75t-95.5 -23q-96 0 -162 63v-242h-75v740h75v-289q0 -91 41.5 -146t124.5 -55q74 3 121 60.5t47 140.5z" />
    <glyph glyph-name="paragraph" unicode="&#xb6;" horiz-adv-x="564" 
d="M230 354q-47 5 -82 22.5t-58.5 45.5t-35 60t-13.5 69q2 78 53.5 133.5t145.5 55.5h252v-867h-74v801h-113v-801h-75v481z" />
    <glyph glyph-name="periodcentered" unicode="&#xb7;" horiz-adv-x="277" 
d="M63 252v133h142v-133h-142z" />
    <glyph glyph-name="cedilla" unicode="&#xb8;" horiz-adv-x="324" 
d="M129 0h35l-23 -57q15 3 31 6q35 -2 57.5 -22t22.5 -60t-28 -65t-66 -25q-28 0 -51.5 18t-32.5 55l43 4q9 -32 41 -32q22 0 36.5 13.5t12.5 35.5q0 19 -14 31.5t-35 13.5q-23 -4 -39 -21l-31 15z" />
    <glyph glyph-name="onesuperior" unicode="&#xb9;" horiz-adv-x="332" 
d="M180 297v402h-82v41h134v-443h-52z" />
    <glyph glyph-name="ordmasculine" unicode="&#xba;" horiz-adv-x="369" 
d="M31 369h307v-43h-307v43zM180 752q68 0 111 -43.5t45 -103.5q2 -41 -18.5 -78t-54 -58.5t-77.5 -23.5q0 2 -0.5 2h-1.5q-70 1 -111.5 48t-39.5 109q0 57 41.5 102.5t105.5 45.5zM182 707q-46 0 -73.5 -30t-30.5 -73q-3 -45 29 -79.5t77 -34.5q46 0 76.5 33t30.5 79
q0 43 -29 74t-80 31z" />
    <glyph glyph-name="guillemotright" unicode="&#xbb;" horiz-adv-x="426" 
d="M213 135l96 166l-96 168l58 33l114 -201l-114 -197zM39 135l96 166l-96 168l59 33l113 -201l-113 -199z" />
    <glyph glyph-name="onequarter" unicode="&#xbc;" horiz-adv-x="830" 
d="M217 0l332 740h64l-332 -740h-64zM182 297v402h-80v41h134v-443h-54zM707 0v82h-238v41l232 322h59v-322h45v-41h-45v-82h-53zM707 123v260l-187 -260h187z" />
    <glyph glyph-name="onehalf" unicode="&#xbd;" horiz-adv-x="830" 
d="M207 0l332 740h65l-333 -740h-64zM178 297v402h-82v41h134v-443h-52zM506 0v41l183 162q73 59 73 113q0 40 -29 67t-73 27q-46 0 -71 -30.5t-25 -78.5h-54q-3 66 41 108t113 42q63 0 106.5 -35.5t43.5 -99.5q0 -47 -22.5 -77t-68.5 -73l-141 -125h231v-41h-307z" />
    <glyph glyph-name="threequarters" unicode="&#xbe;" horiz-adv-x="830" 
d="M707 0v82h-238v41l232 322h59v-322h45v-41h-45v-82h-53zM707 123v260l-187 -260h187zM232 0l332 740h65l-332 -740h-65zM135 529v41q107 0 105 67q0 31 -21 50.5t-55 19.5q-30 0 -50 -24t-20 -54h-49q0 52 33.5 85.5t89.5 33.5q51 0 87 -33.5t36 -79.5q0 -49 -53 -84
q27 -12 43.5 -29t26.5 -40t10 -50q0 -60 -44.5 -101.5t-109.5 -41.5q-64 0 -108 44t-42 103h47q3 -46 31 -76t72 -30t74 30t30 72q-2 97 -133 97z" />
    <glyph glyph-name="questiondown" unicode="&#xbf;" horiz-adv-x="592" 
d="M254 422v125h74v-125h-74zM254 357h74q0 -55 -16.5 -94t-38 -62.5t-60.5 -60.5t-55 -60q-17 -25 -21 -70q2 -62 47.5 -107.5t106.5 -45.5q65 0 114.5 45.5t49.5 130.5h72q3 -118 -70 -182t-170 -64q-58 0 -110 28.5t-83 79t-31 117.5q1 6 1 11q3 52 28 87.5t70.5 79
t68.5 79t23 88.5z" />
    <glyph glyph-name="Agrave" unicode="&#xc0;" horiz-adv-x="740" 
d="M330 740h82l318 -740h-80l-109 248h-342l-107 -248h-80zM371 654l-144 -338h287zM252 908l31 60l200 -107l-34 -59z" />
    <glyph glyph-name="Aacute" unicode="&#xc1;" horiz-adv-x="740" 
d="M330 740h82l318 -740h-80l-109 248h-342l-107 -248h-80zM371 654l-144 -338h287zM250 867l194 117l35 -58l-194 -114z" />
    <glyph glyph-name="Acircumflex" unicode="&#xc2;" horiz-adv-x="740" 
d="M330 740h82l318 -740h-80l-109 248h-342l-107 -248h-80zM371 654l-144 -338h287zM324 928h64l147 -127h-92l-86 75l-88 -75h-90z" />
    <glyph glyph-name="Atilde" unicode="&#xc3;" horiz-adv-x="740" 
d="M330 740h82l318 -740h-80l-109 248h-342l-107 -248h-80zM371 654l-144 -338h287zM215 862q42 41 88 41q23 0 61.5 -18.5t55.5 -20.5q29 3 57 25l29 -49q-46 -37 -84 -39q-34 3 -90 33q-14 8 -31 8q-27 0 -56 -29z" />
    <glyph glyph-name="Adieresis" unicode="&#xc4;" horiz-adv-x="740" 
d="M330 740h82l318 -740h-80l-109 248h-342l-107 -248h-80zM371 654l-144 -338h287zM248 922h74v-127h-74v127zM395 922h74v-127h-74v127z" />
    <glyph glyph-name="Aring" unicode="&#xc5;" horiz-adv-x="740" 
d="M330 740h82l318 -740h-80l-109 248h-342l-107 -248h-80zM371 654l-144 -338h287zM367 981q41 1 68.5 -27t27.5 -65q2 -36 -23 -65t-67 -29q-47 1 -71 31t-21 67q2 35 25 61t61 27zM373 832q26 0 41 19.5t12 41.5q-2 22 -16.5 36t-42.5 13q-22 0 -36 -16.5t-15 -34.5
q-2 -21 14 -40t43 -19z" />
    <glyph glyph-name="AE" unicode="&#xc6;" horiz-adv-x="992" 
d="M523 740h413v-68h-317v-266h307v-66h-307v-274h319v-66h-391v250h-274l-173 -250h-88zM547 316v330l-227 -330h227z" />
    <glyph glyph-name="Ccedilla" unicode="&#xc7;" horiz-adv-x="813" 
d="M45 414q9 101 69.5 180t148.5 120t176 38q99 -3 194 -59t135 -144h-82q-39 62 -108.5 95.5t-138.5 35.5q-79 3 -153 -36t-120 -109t-47 -156q-3 -146 88 -232t219 -86q85 0 153.5 36t109.5 96h82q-37 -67 -94.5 -114.5t-127.5 -71.5t-143 -21l-19 -45q9 7 33 10
q31 -2 53.5 -23.5t22.5 -60.5q-3 -40 -29.5 -65t-62.5 -25q-30 0 -54.5 19t-31.5 54l45 4q9 -32 41 -32q19 0 34 13t15 34q0 18 -14.5 32.5t-36.5 16.5q-23 -3 -37 -25l-31 19l37 78q-80 15 -158.5 61t-128.5 135.5t-39 227.5z" />
    <glyph glyph-name="Egrave" unicode="&#xc8;" horiz-adv-x="535" 
d="M76 0v740h404v-68h-330v-266h319v-66h-319v-274h330v-66h-404zM166 899l31 60l200 -107l-34 -59z" />
    <glyph glyph-name="Eacute" unicode="&#xc9;" horiz-adv-x="535" 
d="M76 0v740h404v-68h-330v-266h319v-66h-319v-274h330v-66h-404zM129 859l194 117l35 -58l-194 -114z" />
    <glyph glyph-name="Ecircumflex" unicode="&#xca;" horiz-adv-x="535" 
d="M76 0v740h404v-68h-330v-266h319v-66h-319v-274h330v-66h-404zM231 926h64l147 -127h-92l-86 75l-88 -75h-90z" />
    <glyph glyph-name="Edieresis" unicode="&#xcb;" horiz-adv-x="535" 
d="M76 0v740h404v-68h-330v-266h319v-66h-319v-274h330v-66h-404zM176 931h74v-127h-74v127zM323 931h74v-127h-74v127z" />
    <glyph glyph-name="Igrave" unicode="&#xcc;" horiz-adv-x="227" 
d="M150 0h-74v740h74v-740zM-12 912l31 60l200 -107l-34 -59z" />
    <glyph glyph-name="Iacute" unicode="&#xcd;" horiz-adv-x="227" 
d="M150 0h-74v740h74v-740zM-12 858l194 117l35 -58l-194 -114z" />
    <glyph glyph-name="Icircumflex" unicode="&#xce;" horiz-adv-x="227" 
d="M150 0h-74v740h74v-740zM78 933h64l147 -127h-92l-86 75l-88 -75h-90z" />
    <glyph glyph-name="Idieresis" unicode="&#xcf;" horiz-adv-x="227" 
d="M150 0h-74v740h74v-740zM0 931h74v-127h-74v127zM147 931h74v-127h-74v127z" />
    <glyph glyph-name="Eth" unicode="&#xd0;" horiz-adv-x="789" 
d="M197 64h96q117 2 198.5 27.5t131.5 92.5t51 185q-3 307 -381 303h-96v-246h129v-67h-129v-295zM326 -2h-203v361h-96v67h96v312h199q124 -2 218.5 -39t151 -119.5t56.5 -210.5q0 -127 -54.5 -210.5t-150 -122t-217.5 -38.5z" />
    <glyph glyph-name="Ntilde" unicode="&#xd1;" horiz-adv-x="740" 
d="M150 0h-74v740h100l414 -613v613h74v-740h-74l-440 650v-650zM219 867q42 41 88 41q23 0 61.5 -18.5t55.5 -20.5q29 3 57 25l29 -49q-46 -37 -84 -39q-34 3 -90 33q-14 8 -31 8q-27 0 -56 -29z" />
    <glyph glyph-name="Ograve" unicode="&#xd2;" horiz-adv-x="869" 
d="M45 377q2 69 30.5 136.5t78.5 120.5t122.5 85.5t155.5 32.5q106 0 198 -52t144.5 -143t51.5 -196q-1 -109 -60 -196t-151.5 -134t-188.5 -45q-95 3 -184 52.5t-143.5 138t-53.5 200.5zM119 381q1 -112 52 -186t122 -106t139 -30q117 2 214.5 78t105.5 226q4 89 -40 162.5
t-120.5 115t-157.5 41.5q-85 0 -158.5 -45t-115.5 -115t-41 -141zM326 914l31 60l200 -107l-34 -59z" />
    <glyph glyph-name="Oacute" unicode="&#xd3;" horiz-adv-x="869" 
d="M45 377q2 69 30.5 136.5t78.5 120.5t122.5 85.5t155.5 32.5q106 0 198 -52t144.5 -143t51.5 -196q-1 -109 -60 -196t-151.5 -134t-188.5 -45q-95 3 -184 52.5t-143.5 138t-53.5 200.5zM119 381q1 -112 52 -186t122 -106t139 -30q117 2 214.5 78t105.5 226q4 89 -40 162.5
t-120.5 115t-157.5 41.5q-85 0 -158.5 -45t-115.5 -115t-41 -141zM310 867l194 117l35 -58l-194 -114z" />
    <glyph glyph-name="Ocircumflex" unicode="&#xd4;" horiz-adv-x="869" 
d="M45 377q2 69 30.5 136.5t78.5 120.5t122.5 85.5t155.5 32.5q106 0 198 -52t144.5 -143t51.5 -196q-1 -109 -60 -196t-151.5 -134t-188.5 -45q-95 3 -184 52.5t-143.5 138t-53.5 200.5zM119 381q1 -112 52 -186t122 -106t139 -30q117 2 214.5 78t105.5 226q4 89 -40 162.5
t-120.5 115t-157.5 41.5q-85 0 -158.5 -45t-115.5 -115t-41 -141zM395 941h64l147 -127h-92l-86 75l-88 -75h-90z" />
    <glyph glyph-name="Otilde" unicode="&#xd5;" horiz-adv-x="869" 
d="M45 377q2 69 30.5 136.5t78.5 120.5t122.5 85.5t155.5 32.5q106 0 198 -52t144.5 -143t51.5 -196q-1 -109 -60 -196t-151.5 -134t-188.5 -45q-95 3 -184 52.5t-143.5 138t-53.5 200.5zM119 381q1 -112 52 -186t122 -106t139 -30q117 2 214.5 78t105.5 226q4 89 -40 162.5
t-120.5 115t-157.5 41.5q-85 0 -158.5 -45t-115.5 -115t-41 -141zM283 875q42 41 88 41q23 0 61.5 -18.5t55.5 -20.5q29 3 57 25l29 -49q-46 -37 -84 -39q-34 3 -90 33q-14 8 -31 8q-27 0 -56 -29z" />
    <glyph glyph-name="Odieresis" unicode="&#xd6;" horiz-adv-x="869" 
d="M45 377q2 69 30.5 136.5t78.5 120.5t122.5 85.5t155.5 32.5q106 0 198 -52t144.5 -143t51.5 -196q-1 -109 -60 -196t-151.5 -134t-188.5 -45q-95 3 -184 52.5t-143.5 138t-53.5 200.5zM119 381q1 -112 52 -186t122 -106t139 -30q117 2 214.5 78t105.5 226q4 89 -40 162.5
t-120.5 115t-157.5 41.5q-85 0 -158.5 -45t-115.5 -115t-41 -141zM314 947h74v-127h-74v127zM461 947h74v-127h-74v127z" />
    <glyph glyph-name="Oslash" unicode="&#xd8;" horiz-adv-x="867" 
d="M219 143l373 496q-80 45 -164 45q-61 0 -118.5 -26.5t-100 -72t-65.5 -102t-25 -118.5q3 -127 100 -222zM273 102q88 -42 172 -45q80 1 151 44.5t111.5 114.5t40.5 153q0 65 -27 127.5t-75 103.5zM176 86q-65 56 -98 128.5t-35 148.5q1 75 32 146.5t83 125.5t122.5 86.5
t149.5 32.5q104 0 205 -57l94 125l52 -43l-90 -121q135 -121 135 -287q0 -78 -30.5 -148.5t-83.5 -122t-126 -82t-150 -30.5q-108 0 -206 57l-93 -127l-55 41z" />
    <glyph glyph-name="Ugrave" unicode="&#xd9;" horiz-adv-x="654" 
d="M76 246v494h74v-490q0 -89 54 -141t124 -54q75 2 126.5 56t51.5 155v474h74v-472q0 -89 -35 -153t-93 -95.5t-124 -31.5q-100 0 -176 69.5t-76 188.5zM213 916l31 60l200 -107l-34 -59z" />
    <glyph glyph-name="Uacute" unicode="&#xda;" horiz-adv-x="654" 
d="M76 246v494h74v-490q0 -89 54 -141t124 -54q75 2 126.5 56t51.5 155v474h74v-472q0 -89 -35 -153t-93 -95.5t-124 -31.5q-100 0 -176 69.5t-76 188.5zM222 871l194 117l35 -58l-194 -114z" />
    <glyph glyph-name="Ucircumflex" unicode="&#xdb;" horiz-adv-x="654" 
d="M76 246v494h74v-490q0 -89 54 -141t124 -54q75 2 126.5 56t51.5 155v474h74v-472q0 -89 -35 -153t-93 -95.5t-124 -31.5q-100 0 -176 69.5t-76 188.5zM291 935h64l147 -127h-92l-86 75l-88 -75h-90z" />
    <glyph glyph-name="Udieresis" unicode="&#xdc;" horiz-adv-x="654" 
d="M76 246v494h74v-490q0 -89 54 -141t124 -54q75 2 126.5 56t51.5 155v474h74v-472q0 -89 -35 -153t-93 -95.5t-124 -31.5q-100 0 -176 69.5t-76 188.5zM215 939h74v-127h-74v127zM362 939h74v-127h-74v127z" />
    <glyph glyph-name="Yacute" unicode="&#xdd;" horiz-adv-x="592" 
d="M260 0v248l-258 492h80l215 -416l213 416h82l-260 -492v-248h-72zM181 859l194 117l35 -58l-194 -114z" />
    <glyph glyph-name="Thorn" unicode="&#xde;" horiz-adv-x="592" 
d="M150 523v-306h127q102 0 158.5 30.5t56.5 123.5q0 105 -61 128.5t-185 23.5h-96zM289 150h-139v-150h-74v740h74v-148h121q65 0 116.5 -9t91.5 -31.5t63.5 -67.5t23.5 -115q0 -122 -75.5 -170.5t-201.5 -48.5z" />
    <glyph glyph-name="germandbls" unicode="&#xdf;" 
d="M129 0h-68v514q0 88 50 163t159 75q54 0 100 -27.5t73 -71.5t30 -94q3 -57 -20 -103.5t-66 -68.5q61 -12 101.5 -62.5t36.5 -140.5q-3 -84 -66 -140t-143 -56q-59 -2 -108 30t-79 93v-111zM182 203q6 -63 40.5 -102.5t95.5 -39.5q53 0 90 37t43 88q5 60 -38.5 108
t-141.5 48q-33 0 -50 -2v70q71 -2 124 30t53 113q0 40 -19.5 69.5t-51.5 44.5t-71 15q-52 0 -86.5 -48t-34.5 -113v-318h47z" />
    <glyph glyph-name="agrave" unicode="&#xe0;" horiz-adv-x="684" 
d="M41 270q1 89 43.5 155t109.5 102t140 34q150 -4 215 -120v106h72v-547h-72v104q-31 -56 -91.5 -87.5t-129.5 -28.5q-73 1 -140 37t-107 99t-40 146zM117 287q-3 -49 13.5 -91t47 -72.5t70 -46.5t80.5 -18q94 -1 157.5 64t63.5 147q0 90 -61 152t-150 66q-61 3 -112 -28
t-80 -80t-29 -93zM224 721l31 60l200 -107l-34 -59z" />
    <glyph glyph-name="aacute" unicode="&#xe1;" horiz-adv-x="684" 
d="M41 270q1 89 43.5 155t109.5 102t140 34q150 -4 215 -120v106h72v-547h-72v104q-31 -56 -91.5 -87.5t-129.5 -28.5q-73 1 -140 37t-107 99t-40 146zM117 287q-3 -49 13.5 -91t47 -72.5t70 -46.5t80.5 -18q94 -1 157.5 64t63.5 147q0 90 -61 152t-150 66q-61 3 -112 -28
t-80 -80t-29 -93zM224 672l194 117l35 -58l-194 -114z" />
    <glyph glyph-name="acircumflex" unicode="&#xe2;" horiz-adv-x="684" 
d="M41 270q1 89 43.5 155t109.5 102t140 34q150 -4 215 -120v106h72v-547h-72v104q-31 -56 -91.5 -87.5t-129.5 -28.5q-73 1 -140 37t-107 99t-40 146zM117 287q-3 -49 13.5 -91t47 -72.5t70 -46.5t80.5 -18q94 -1 157.5 64t63.5 147q0 90 -61 152t-150 66q-61 3 -112 -28
t-80 -80t-29 -93zM311 740h64l147 -127h-92l-86 75l-88 -75h-90z" />
    <glyph glyph-name="atilde" unicode="&#xe3;" horiz-adv-x="684" 
d="M41 270q1 89 43.5 155t109.5 102t140 34q150 -4 215 -120v106h72v-547h-72v104q-31 -56 -91.5 -87.5t-129.5 -28.5q-73 1 -140 37t-107 99t-40 146zM117 287q-3 -49 13.5 -91t47 -72.5t70 -46.5t80.5 -18q94 -1 157.5 64t63.5 147q0 90 -61 152t-150 66q-61 3 -112 -28
t-80 -80t-29 -93zM197 674q42 41 88 41q23 0 61.5 -18.5t55.5 -20.5q29 3 57 25l29 -49q-46 -37 -84 -39q-34 3 -90 33q-14 8 -31 8q-27 0 -56 -29z" />
    <glyph glyph-name="adieresis" unicode="&#xe4;" horiz-adv-x="684" 
d="M41 270q1 89 43.5 155t109.5 102t140 34q150 -4 215 -120v106h72v-547h-72v104q-31 -56 -91.5 -87.5t-129.5 -28.5q-73 1 -140 37t-107 99t-40 146zM117 287q-3 -49 13.5 -91t47 -72.5t70 -46.5t80.5 -18q94 -1 157.5 64t63.5 147q0 90 -61 152t-150 66q-61 3 -112 -28
t-80 -80t-29 -93zM232 740h74v-127h-74v127zM379 740h74v-127h-74v127z" />
    <glyph glyph-name="aring" unicode="&#xe5;" horiz-adv-x="684" 
d="M41 270q1 89 43.5 155t109.5 102t140 34q150 -4 215 -120v106h72v-547h-72v104q-31 -56 -91.5 -87.5t-129.5 -28.5q-73 1 -140 37t-107 99t-40 146zM117 287q-3 -49 13.5 -91t47 -72.5t70 -46.5t80.5 -18q94 -1 157.5 64t63.5 147q0 90 -61 152t-150 66q-61 3 -112 -28
t-80 -80t-29 -93zM336 799q41 1 68.5 -27t27.5 -65q2 -36 -23 -65t-67 -29q-47 1 -71 31t-21 67q2 35 25 61t61 27zM342 650q26 0 41 19.5t12 41.5q-2 22 -16.5 36t-42.5 13q-22 0 -36 -16.5t-15 -34.5q-2 -21 14 -40t43 -19z" />
    <glyph glyph-name="ae" unicode="&#xe6;" horiz-adv-x="1156" 
d="M623 461q43 53 101 79t118 24q60 -1 112 -25.5t90.5 -68t59 -100t17.5 -120.5h-496q9 -61 42.5 -104.5t79 -65t97.5 -19.5q57 3 107 34.5t74 86.5h77q-29 -86 -101 -136.5t-155 -55.5q-57 -3 -116 22.5t-107 77.5v-100h-70v100q-48 -53 -98.5 -76t-120.5 -24
q-120 -1 -205.5 83.5t-87.5 196.5q2 5 2 13q3 70 37.5 134t97.5 105t152 41q138 0 223 -102v102h70v-102zM1041 316q-14 85 -72 129.5t-131 46.5q-75 2 -137 -46t-72 -130h412zM330 492q-62 -1 -109.5 -30t-73 -74t-30.5 -95q-3 -57 21.5 -110.5t73.5 -87t116 -34.5q2 2 3 2
h1q69 0 121 32.5t78 83t24 106.5q-2 47 -28 96t-76 80.5t-121 30.5z" />
    <glyph glyph-name="ccedilla" unicode="&#xe7;" horiz-adv-x="646" 
d="M43 275q1 85 43 148t109.5 99t136.5 37q86 3 162 -42t117 -134h-86q-29 51 -80.5 80.5t-110.5 26.5q-105 -7 -162 -71t-55 -151q1 -90 63 -147.5t156 -59.5q62 -3 111.5 26t79.5 73h80q-22 -67 -103.5 -123t-181.5 -49l-17 -45q7 3 31 8q35 -2 57.5 -25t18.5 -67
q-3 -39 -29 -59.5t-61 -20.5q-31 0 -56.5 19t-29.5 52l43 5q17 -33 45 -33q19 0 33 14t14 33q0 17 -14 31t-37 16q-23 -4 -39 -21l-29 17l35 80q-112 25 -178 97t-66 186z" />
    <glyph glyph-name="egrave" unicode="&#xe8;" horiz-adv-x="650" 
d="M43 277q3 128 88 205t195 79q69 0 135 -34t108 -102.5t42 -162.5v-14h-494q7 -90 71 -139.5t136 -49.5q62 0 119 34.5t77 86.5h76q-25 -65 -70 -109t-98.5 -64.5t-107.5 -18.5q-73 3 -138 39.5t-102.5 102.5t-36.5 147zM539 314q-14 73 -72.5 124.5t-138.5 51.5
q-71 0 -118 -33.5t-69 -76t-24 -66.5h422zM189 731l31 60l200 -107l-34 -59z" />
    <glyph glyph-name="eacute" unicode="&#xe9;" horiz-adv-x="650" 
d="M43 277q3 128 88 205t195 79q69 0 135 -34t108 -102.5t42 -162.5v-14h-494q7 -90 71 -139.5t136 -49.5q62 0 119 34.5t77 86.5h76q-25 -65 -70 -109t-98.5 -64.5t-107.5 -18.5q-73 3 -138 39.5t-102.5 102.5t-36.5 147zM539 314q-14 73 -72.5 124.5t-138.5 51.5
q-71 0 -118 -33.5t-69 -76t-24 -66.5h422zM201 660l194 117l35 -58l-194 -114z" />
    <glyph glyph-name="ecircumflex" unicode="&#xea;" horiz-adv-x="650" 
d="M43 277q3 128 88 205t195 79q69 0 135 -34t108 -102.5t42 -162.5v-14h-494q7 -90 71 -139.5t136 -49.5q62 0 119 34.5t77 86.5h76q-25 -65 -70 -109t-98.5 -64.5t-107.5 -18.5q-73 3 -138 39.5t-102.5 102.5t-36.5 147zM539 314q-14 73 -72.5 124.5t-138.5 51.5
q-71 0 -118 -33.5t-69 -76t-24 -66.5h422zM291 726h64l147 -127h-92l-86 75l-88 -75h-90z" />
    <glyph glyph-name="edieresis" unicode="&#xeb;" horiz-adv-x="650" 
d="M43 277q3 128 88 205t195 79q69 0 135 -34t108 -102.5t42 -162.5v-14h-494q7 -90 71 -139.5t136 -49.5q62 0 119 34.5t77 86.5h76q-25 -65 -70 -109t-98.5 -64.5t-107.5 -18.5q-73 3 -138 39.5t-102.5 102.5t-36.5 147zM539 314q-14 73 -72.5 124.5t-138.5 51.5
q-71 0 -118 -33.5t-69 -76t-24 -66.5h422zM215 732h74v-127h-74v127zM362 732h74v-127h-74v127z" />
    <glyph glyph-name="igrave" unicode="&#xec;" horiz-adv-x="199" 
d="M63 0v547h74v-547h-74zM-31 723l31 60l200 -107l-34 -59z" />
    <glyph glyph-name="iacute" unicode="&#xed;" horiz-adv-x="199" 
d="M63 0v547h74v-547h-74zM-20 678l194 117l35 -58l-194 -114z" />
    <glyph glyph-name="icircumflex" unicode="&#xee;" horiz-adv-x="199" 
d="M63 0v547h74v-547h-74zM69 732h64l147 -127h-92l-86 75l-88 -75h-90z" />
    <glyph glyph-name="idieresis" unicode="&#xef;" horiz-adv-x="199" 
d="M63 0v547h74v-547h-74zM-6 750h74v-127h-74v127zM141 750h74v-127h-74v127z" />
    <glyph glyph-name="eth" unicode="&#xf0;" horiz-adv-x="654" 
d="M330 488q-91 0 -152 -63.5t-61 -153.5q0 -87 62.5 -149.5t150.5 -62.5q90 0 150.5 64t60.5 154q0 58 -28 106t-76 76.5t-107 28.5zM330 -12q-117 0 -202 82.5t-85 200.5q0 61 22 114t62 93t93 61.5t110 21.5q98 0 158 -55q-59 100 -158 152l-107 -39l-63 26l115 41
q-57 31 -138 54h140q30 -7 65 -27l137 47l56 -28l-142 -50q96 -70 157.5 -172t64.5 -233q0 -122 -83.5 -205.5t-201.5 -83.5z" />
    <glyph glyph-name="ntilde" unicode="&#xf1;" horiz-adv-x="609" 
d="M63 0v547h70v-82q29 47 74.5 70.5t99.5 23.5q96 0 168 -67t72 -183v-309h-72v309q0 86 -50.5 131.5t-121.5 45.5q-67 0 -116.5 -44.5t-49.5 -123.5v-318h-74zM164 672q42 41 88 41q23 0 61.5 -18.5t55.5 -20.5q29 3 57 25l29 -49q-46 -37 -84 -39q-34 3 -90 33
q-14 8 -31 8q-27 0 -56 -29z" />
    <glyph glyph-name="ograve" unicode="&#xf2;" horiz-adv-x="654" 
d="M43 283q2 75 39.5 137.5t106 101t149.5 37.5q45 0 93.5 -20t87.5 -54.5t66 -83.5t30 -102q6 -83 -32.5 -155.5t-106.5 -114t-148 -41.5q-70 0 -137.5 35.5t-108 103.5t-39.5 156zM115 279q0 -98 63 -157.5t152 -64.5q49 0 97 26t80 76.5t32 119.5q0 52 -29 101.5t-78 79
t-102 28.5q-85 -2 -149.5 -62t-65.5 -147zM213 713l31 60l200 -107l-34 -59z" />
    <glyph glyph-name="oacute" unicode="&#xf3;" horiz-adv-x="654" 
d="M43 283q2 75 39.5 137.5t106 101t149.5 37.5q45 0 93.5 -20t87.5 -54.5t66 -83.5t30 -102q6 -83 -32.5 -155.5t-106.5 -114t-148 -41.5q-70 0 -137.5 35.5t-108 103.5t-39.5 156zM115 279q0 -98 63 -157.5t152 -64.5q49 0 97 26t80 76.5t32 119.5q0 52 -29 101.5t-78 79
t-102 28.5q-85 -2 -149.5 -62t-65.5 -147zM217 660l194 117l35 -58l-194 -114z" />
    <glyph glyph-name="ocircumflex" unicode="&#xf4;" horiz-adv-x="654" 
d="M43 283q2 75 39.5 137.5t106 101t149.5 37.5q45 0 93.5 -20t87.5 -54.5t66 -83.5t30 -102q6 -83 -32.5 -155.5t-106.5 -114t-148 -41.5q-70 0 -137.5 35.5t-108 103.5t-39.5 156zM115 279q0 -98 63 -157.5t152 -64.5q49 0 97 26t80 76.5t32 119.5q0 52 -29 101.5t-78 79
t-102 28.5q-85 -2 -149.5 -62t-65.5 -147zM283 728h64l147 -127h-92l-86 75l-88 -75h-90z" />
    <glyph glyph-name="otilde" unicode="&#xf5;" horiz-adv-x="654" 
d="M43 283q2 75 39.5 137.5t106 101t149.5 37.5q45 0 93.5 -20t87.5 -54.5t66 -83.5t30 -102q6 -83 -32.5 -155.5t-106.5 -114t-148 -41.5q-70 0 -137.5 35.5t-108 103.5t-39.5 156zM115 279q0 -98 63 -157.5t152 -64.5q49 0 97 26t80 76.5t32 119.5q0 52 -29 101.5t-78 79
t-102 28.5q-85 -2 -149.5 -62t-65.5 -147zM170 654q42 41 88 41q23 0 61.5 -18.5t55.5 -20.5q29 3 57 25l29 -49q-46 -37 -84 -39q-34 3 -90 33q-14 8 -31 8q-27 0 -56 -29z" />
    <glyph glyph-name="odieresis" unicode="&#xf6;" horiz-adv-x="654" 
d="M43 283q2 75 39.5 137.5t106 101t149.5 37.5q45 0 93.5 -20t87.5 -54.5t66 -83.5t30 -102q6 -83 -32.5 -155.5t-106.5 -114t-148 -41.5q-70 0 -137.5 35.5t-108 103.5t-39.5 156zM115 279q0 -98 63 -157.5t152 -64.5q49 0 97 26t80 76.5t32 119.5q0 52 -29 101.5t-78 79
t-102 28.5q-85 -2 -149.5 -62t-65.5 -147zM222 724h74v-127h-74v127zM369 724h74v-127h-74v127z" />
    <glyph glyph-name="oslash" unicode="&#xf8;" horiz-adv-x="652" 
d="M475 518l56 76l55 -39l-59 -78q80 -80 80 -206q0 -119 -79.5 -201t-197.5 -82q-77 0 -146 39l-55 -72l-51 39l53 70q-91 91 -94 209q1 76 40.5 142.5t105 107t141.5 40.5q80 0 151 -45zM432 461q-50 31 -106 31q-59 0 -107.5 -32t-77.5 -84t-30 -108q3 -85 63 -145z
M484 418l-257 -336q41 -21 101 -25q89 3 149 69t60 155q0 85 -53 137z" />
    <glyph glyph-name="ugrave" unicode="&#xf9;" horiz-adv-x="607" 
d="M63 221v326h74v-315q0 -82 48.5 -128.5t115.5 -48.5q71 2 120.5 52t49.5 141v299h74v-547h-68v86q-25 -48 -73.5 -74t-106.5 -26q-93 0 -163.5 63t-70.5 172zM189 719l31 60l200 -107l-34 -59z" />
    <glyph glyph-name="uacute" unicode="&#xfa;" horiz-adv-x="607" 
d="M63 221v326h74v-315q0 -82 48.5 -128.5t115.5 -48.5q71 2 120.5 52t49.5 141v299h74v-547h-68v86q-25 -48 -73.5 -74t-106.5 -26q-93 0 -163.5 63t-70.5 172zM185 676l194 117l35 -58l-194 -114z" />
    <glyph glyph-name="ucircumflex" unicode="&#xfb;" horiz-adv-x="607" 
d="M63 221v326h74v-315q0 -82 48.5 -128.5t115.5 -48.5q71 2 120.5 52t49.5 141v299h74v-547h-68v86q-25 -48 -73.5 -74t-106.5 -26q-93 0 -163.5 63t-70.5 172zM262 740h64l147 -127h-92l-86 75l-88 -75h-90z" />
    <glyph glyph-name="udieresis" unicode="&#xfc;" horiz-adv-x="607" 
d="M63 221v326h74v-315q0 -82 48.5 -128.5t115.5 -48.5q71 2 120.5 52t49.5 141v299h74v-547h-68v86q-25 -48 -73.5 -74t-106.5 -26q-93 0 -163.5 63t-70.5 172zM189 740h74v-127h-74v127zM336 740h74v-127h-74v127z" />
    <glyph glyph-name="yacute" unicode="&#xfd;" horiz-adv-x="535" 
d="M219 18l-209 529h78l176 -436l185 436h78l-316 -738h-78zM160 670l194 117l35 -58l-194 -114z" />
    <glyph glyph-name="thorn" unicode="&#xfe;" horiz-adv-x="682" 
d="M64 738h75v-283q80 101 213 104q71 2 138 -36t109 -104.5t42 -148.5q0 -80 -40 -147t-109 -103.5t-146 -35.5q-68 3 -118 29t-89 75v-281h-75v931zM348 57q92 0 155 60.5t63 152.5q0 91 -62.5 153.5t-151.5 62.5q-91 0 -155 -60t-64 -149q0 -98 58 -159t157 -61z" />
    <glyph glyph-name="ydieresis" unicode="&#xff;" horiz-adv-x="535" 
d="M219 18l-209 529h78l176 -436l185 436h78l-316 -738h-78zM160 740h74v-127h-74v127zM307 740h74v-127h-74v127z" />
    <glyph glyph-name="OE" unicode="&#x152;" horiz-adv-x="1193" 
d="M750 600v140h391v-66h-317v-268h305v-66h-305v-272h315v-68h-391v143q-55 -69 -133.5 -112.5t-171.5 -42.5q-185 3 -295 122.5t-101 284.5q5 89 53 171.5t131.5 133.5t188.5 54q207 6 330 -154zM424 684q-137 -4 -222.5 -100.5t-82.5 -212.5q2 -82 42 -155.5t114.5 -117
t167.5 -39.5q84 3 156.5 48t112 117t38.5 153q-2 60 -25 114.5t-65 98.5t-103 70.5t-133 23.5z" />
    <glyph glyph-name="oe" unicode="&#x153;" horiz-adv-x="1137" 
d="M580 414q39 73 106 110.5t146 34.5q114 -3 194.5 -89t77.5 -224h-489q8 -87 70 -137t139 -50q40 0 77 15t66.5 41.5t44.5 62.5h76q-31 -93 -107.5 -141.5t-162.5 -48.5q-73 0 -138.5 39t-101.5 108q-36 -59 -101.5 -105t-146.5 -42q-132 6 -207.5 92.5t-75.5 194.5
q0 67 32 132t94 107.5t145 46.5q88 4 156.5 -42t105.5 -105zM1029 313q-13 77 -70.5 124.5t-128.5 50.5q-49 3 -94.5 -17.5t-77 -61.5t-43.5 -96h414zM328 488q-63 -1 -112.5 -34t-73.5 -83.5t-21 -104.5q3 -84 61.5 -145.5t149.5 -61.5q66 0 114 33t72.5 88.5t20.5 112.5
q-3 49 -30 94t-73.5 73.5t-107.5 27.5z" />
    <glyph glyph-name="florin" unicode="&#x192;" 
d="M314 520q45 249 229 228l-16 -70q-66 6 -99 -51t-33 -107h109l-16 -71h-109l-88 -465q-10 -87 -66.5 -156t-208.5 -57v73q88 0 134 21t63 112l94 472h-118l16 71h109z" />
    <glyph glyph-name="circumflex" unicode="&#x2c6;" horiz-adv-x="502" 
d="M219 740h64l147 -127h-92l-86 75l-88 -75h-90z" />
    <glyph glyph-name="tilde" unicode="&#x2dc;" horiz-adv-x="439" 
d="M74 674q42 41 88 41q23 0 61.5 -18.5t55.5 -20.5q29 3 57 25l29 -49q-46 -37 -84 -39q-34 3 -90 33q-14 8 -31 8q-27 0 -56 -29z" />
    <glyph glyph-name="endash" unicode="&#x2013;" horiz-adv-x="500" 
d="M0 336h502v-68h-502v68z" />
    <glyph glyph-name="emdash" unicode="&#x2014;" horiz-adv-x="1000" 
d="M0 334h998h2v-66h-998h-2v66z" />
    <glyph glyph-name="quoteleft" unicode="&#x2018;" horiz-adv-x="352" 
d="M186 547l-88 193h76l86 -193h-74z" />
    <glyph glyph-name="quoteright" unicode="&#x2019;" horiz-adv-x="352" 
d="M180 740h74l-88 -193h-74z" />
    <glyph glyph-name="quotedblleft" unicode="&#x201c;" horiz-adv-x="502" 
d="M332 547l-88 193h74l88 -193h-74zM184 547l-88 193h74l88 -193h-74z" />
    <glyph glyph-name="quotedblright" unicode="&#x201d;" horiz-adv-x="484" 
d="M320 740h73l-88 -193h-75zM172 740h74l-88 -193h-70z" />
    <glyph glyph-name="quotedblbase" unicode="&#x201e;" horiz-adv-x="502" 
d="M277 133h133v-153q0 -48 -35.5 -84.5t-95.5 -36.5v69q27 5 42.5 18.5t14.5 53.5h-59v133zM70 133h133v-154q0 -46 -37 -84t-96 -34v65q31 9 46.5 22t12.5 52h-59v133z" />
    <glyph glyph-name="dagger" unicode="&#x2020;" horiz-adv-x="553" 
d="M240 539v201h73v-201h181v-66h-181v-600h-73v600h-181v66h181z" />
    <glyph glyph-name="daggerdbl" unicode="&#x2021;" horiz-adv-x="553" 
d="M240 563v177h74v-177h180v-69h-180v-94h180v-68h-180v-459h-74v459h-181v68h181v94h-181v69h181z" />
    <glyph glyph-name="bullet" unicode="&#x2022;" horiz-adv-x="605" 
d="M313 488q50 0 92 -22.5t65.5 -64t23.5 -94.5q0 -54 -25 -97.5t-69 -67.5t-93 -23q-83 0 -132.5 55t-49.5 135q0 76 54.5 127.5t133.5 51.5z" />
    <glyph glyph-name="ellipsis" unicode="&#x2026;" horiz-adv-x="1000" 
d="M131 0v127h74v-127h-74zM463 0v127h74v-127h-74zM797 0v127h74v-127h-74z" />
    <glyph glyph-name="perthousand" unicode="&#x2030;" horiz-adv-x="1174" 
d="M514 740h72l-332 -740h-72zM189 682q-49 -1 -76 -31.5t-29 -72.5q0 -41 29 -73.5t75 -33.5q2 2 2.5 2h0.5q31 1 53.5 17t34.5 40.5t12 51.5q-2 38 -31 69t-71 31zM580 266q-48 0 -75.5 -30t-29.5 -72q0 -42 28 -74t75 -33q2 2 3 2h1q46 0 73 33t27 76q-2 39 -31.5 69
t-70.5 29zM979 266q-48 0 -75.5 -29.5t-30.5 -72.5q0 -41 29 -73.5t75 -33.5q1 1 2 1.5l1 0.5q46 0 73 33t27 76q-2 39 -31.5 69t-69.5 29zM189 752q81 0 123.5 -50.5t48.5 -115.5q5 -71 -42.5 -127.5t-129.5 -56.5q-54 0 -94 26t-61.5 67.5t-19.5 86.5t23 83t60 62.5
t92 24.5zM580 338q78 -1 122.5 -53t47.5 -113q6 -70 -42.5 -127t-127.5 -57t-129 55t-47 125q2 45 23.5 83t60.5 62.5t92 24.5zM979 338q80 0 123.5 -52t47.5 -114q6 -71 -42.5 -127.5t-128.5 -56.5q-79 0 -128.5 55.5t-47.5 126.5q3 66 51.5 117.5t124.5 50.5z" />
    <glyph glyph-name="guilsinglleft" unicode="&#x2039;" horiz-adv-x="252" 
d="M41 301l113 199l57 -31l-94 -168l94 -168l-57 -31z" />
    <glyph glyph-name="guilsinglright" unicode="&#x203a;" horiz-adv-x="252" 
d="M41 133l94 168l-94 168l59 31l111 -199l-113 -199z" />
    <glyph glyph-name="trademark" unicode="&#x2122;" horiz-adv-x="1000" 
d="M197 680h-134v60h341v-60h-133v-362h-74v362zM479 318v422h107l121 -297l125 297h107v-422h-66v362l-146 -362h-39l-143 362v-362h-66z" />
    <glyph glyph-name="fi" horiz-adv-x="486" 
d="M98 2v478h-86v67h86q-3 193 209 193v-68q-135 4 -137 -117q2 -4 2 -8h135v-67h-135v-478h-74zM352 0v547h74v-547h-74zM352 613v127h74v-127h-74z" />
    <glyph glyph-name="fl" horiz-adv-x="484" 
d="M98 2v478h-86v67h86q-3 193 209 193v-68q-135 4 -137 -117q2 -4 2 -8h135v-67h-135v-478h-74zM350 0v740h74v-740h-74z" />
    <glyph glyph-name="dotlessi" horiz-adv-x="199" 
d="M63 0v547h74v-547h-74z" />
    <glyph glyph-name="breve" horiz-adv-x="453" 
d="M74 717h63q7 -18 34.5 -32t57.5 -15q59 4 87 47h63q-10 -49 -53 -76.5t-101 -29.5q-56 2 -98.5 30t-52.5 76z" />
    <glyph glyph-name="ring" horiz-adv-x="332" 
d="M162 799q41 1 68.5 -27t27.5 -65q2 -36 -23 -65t-67 -29q-47 1 -71 31t-21 67q2 35 25 61t61 27zM168 650q26 0 41 19.5t12 41.5q-2 22 -16.5 36t-42.5 13q-22 0 -36 -16.5t-15 -34.5q-2 -21 14 -40t43 -19z" />
    </font>
</defs>
</svg>
