<?xml version="1.0" standalone="no"?>
<!DOCTYPE svg PUBLIC "-//W3C//DTD SVG 1.1//EN" "http://www.w3.org/Graphics/SVG/1.1/DTD/svg11.dtd" >
<svg xmlns="http://www.w3.org/2000/svg">
<metadata></metadata>
<defs>
<font id="alaskaregular" horiz-adv-x="1290" >
<font-face units-per-em="2048" ascent="1638" descent="-410" />
<missing-glyph horiz-adv-x="645" />
<glyph horiz-adv-x="2048" />
<glyph horiz-adv-x="2048" />
<glyph unicode="&#xd;" horiz-adv-x="2048" />
<glyph unicode=" "  horiz-adv-x="645" />
<glyph unicode="&#x09;" horiz-adv-x="645" />
<glyph unicode="&#xa0;" horiz-adv-x="645" />
<glyph unicode="!" horiz-adv-x="645" d="M133 1567h378q-35 -77 -59 -199t-24 -227v-449q0 -86 -24 -146.5t-82 -119.5q-58 58 -82.5 119t-24.5 147v449q0 102 -24 224t-58 202zM158 139q0 68 48 116t116 48t116 -48t48 -116q0 -67 -48 -115.5t-116 -48.5t-116 48t-48 116z" />
<glyph unicode="&#x22;" horiz-adv-x="1024" d="M199 1567h245l-51 -586h-143zM578 1567h245l-51 -586h-143z" />
<glyph unicode="#" d="M12 449l58 213h194l68 245h-197l58 213h194l76 281q30 115 -4 190h309q-42 -50 -84 -186l-76 -285h254l74 281q30 115 -4 190h309q-42 -50 -84 -186l-76 -285h195l-57 -213h-195l-66 -245h195l-57 -213h-195l-76 -283q-30 -114 4 -191h-309q44 55 84 187l78 287h-254 l-76 -283q-30 -114 4 -191h-309q42 52 84 187l78 287h-197zM485 662h252l68 245h-254z" />
<glyph unicode="$" d="M197 1227q0 144 104.5 244.5t265.5 115.5v147h156v-147q128 -4 262 -45v-264q-103 103 -262 121v-510l189 -143q82 -64 132 -160t50 -193q0 -175 -99.5 -284.5t-271.5 -128.5v-148h-156v146q-169 8 -339 61v283q58 -62 148 -103.5t191 -52.5v535l-130 100 q-117 90 -178.5 199.5t-61.5 226.5zM443 1227q0 -121 124 -217v381q-59 -20 -91.5 -63t-32.5 -101zM723 182q54 24 89.5 71.5t35.5 98.5q0 67 -29.5 121t-95.5 107v-398z" />
<glyph unicode="%" horiz-adv-x="1933" d="M82 1067q0 524 358 524q356 0 356 -524q0 -526 -356 -526q-358 0 -358 526zM272 1067q0 -362 168 -362q166 0 166 362q0 360 -166 360q-168 0 -168 -360zM442 -25q38 26 77 77t64 108l574 1275q31 67 39 156h295q-37 -23 -76 -74.5t-65 -112.5l-574 -1275 q-32 -67 -39 -154h-295zM1137 502q0 524 358 524q356 0 356 -524q0 -527 -356 -527q-358 0 -358 527zM1327 502q0 -363 168 -363q166 0 166 363q0 360 -166 360q-168 0 -168 -360z" />
<glyph unicode="&#x26;" horiz-adv-x="1782" d="M61 438q0 125 83.5 239.5t269.5 240.5q-93 90 -135.5 171.5t-42.5 170.5q0 159 102 245t287 86t287 -86t102 -245q0 -90 -56.5 -172.5t-181.5 -173.5q198 -161 391 -341q74 170 74 363v103q-82 0 -184 -72v260h663v-260q-47 33 -114 52.5t-132 19.5v-103 q0 -137 -35.5 -280t-97.5 -255q182 -177 313 -401h-409q0 89 -65 186q-99 -101 -240 -156t-299 -55q-286 0 -433 117.5t-147 345.5zM307 438q0 -126 90.5 -200.5t243.5 -74.5q100 0 202 51.5t189 147.5q-203 206 -456 414q-154 -107 -211.5 -181.5t-57.5 -156.5zM482 1260 q0 -91 129 -207q84 63 120.5 111.5t36.5 95.5q0 59 -41.5 101t-101.5 42q-63 0 -103 -40t-40 -103z" />
<glyph unicode="'" horiz-adv-x="645" d="M199 1567h245l-51 -586h-143z" />
<glyph unicode="(" horiz-adv-x="834" d="M221 611q0 277 78.5 526.5t228.5 453.5h185q-135 -199 -207 -452t-72 -528t72 -528t207 -452h-185q-307 417 -307 980z" />
<glyph unicode=")" horiz-adv-x="834" d="M120 -369q135 199 207 452t72 528t-72 528t-207 452h185q150 -204 228.5 -453.5t78.5 -526.5q0 -563 -307 -980h-185z" />
<glyph unicode="*" d="M223 1198l76 229q117 -74 279 -145q-23 184 -54 309h242q-32 -131 -53 -309q163 72 278 145l76 -229q-148 -10 -311 -47q127 -138 225 -219l-197 -141q-45 114 -139 283q-89 -160 -139 -283l-197 141q94 77 226 219q-163 37 -312 47z" />
<glyph unicode="+" horiz-adv-x="1933" d="M420 389v315q103 -51 245 -51h195v193q0 141 -51 246h315q-51 -90 -51 -246v-193h193q140 0 245 51v-315q-88 51 -245 51h-193v-194q0 -156 51 -246h-315q51 105 51 246v194h-195q-157 0 -245 -51z" />
<glyph unicode="," horiz-adv-x="645" d="M86 -344q135 270 135 467q0 101 -33 180h307q-14 -40 -35 -129q-24 -100 -40 -152q-62 -199 -191 -366h-143z" />
<glyph unicode="-" horiz-adv-x="645" d="M51 389v315q105 -51 246 -51h51q141 0 246 51v-315q-90 51 -246 51h-51q-156 0 -246 -51z" />
<glyph unicode="." horiz-adv-x="645" d="M158 139q0 68 48.5 116t115.5 48q68 0 116 -48t48 -116q0 -67 -48 -115.5t-116 -48.5q-67 0 -115.5 48.5t-48.5 115.5z" />
<glyph unicode="/" horiz-adv-x="909" d="M4 -25q35 24 69 74.5t56 110.5l463 1276q24 65 24 155h289q-34 -23 -68.5 -73.5t-56.5 -110.5l-463 -1276q-24 -66 -24 -156h-289z" />
<glyph unicode="0" d="M96 784q0 407 136 607t413 200t413 -200t136 -607q0 -408 -136 -608.5t-413 -200.5t-413 200.5t-136 608.5zM325 784q0 -306 81 -463.5t239 -157.5t239 157.5t81 463.5t-81 462.5t-239 156.5t-239 -156.5t-81 -462.5z" />
<glyph unicode="1" d="M291 1202l463 389v-1267q0 -210 57 -324h-331q57 114 57 324v878h-246z" />
<glyph unicode="2" d="M117 0l665 852q117 149 117 282q0 120 -68.5 194.5t-181.5 74.5q-109 0 -177.5 -76.5t-68.5 -192.5q0 -53 18 -112l-249 70q0 225 131.5 362t345.5 137q210 0 344.5 -128t134.5 -329q0 -88 -46 -195t-128 -212l-420 -539h304q190 0 339 66l-80 -254h-980z" />
<glyph unicode="3" d="M123 116l142 273q54 -106 151.5 -166t216.5 -60q147 0 239.5 96.5t92.5 243.5q0 159 -94.5 255t-255.5 96h-182l350 525h-238q-186 0 -340 -66l80 254h880l-358 -551q176 -48 281.5 -187.5t105.5 -325.5q0 -103 -39 -198.5t-112 -168.5q-160 -161 -410 -161 q-295 0 -510 141z" />
<glyph unicode="4" d="M82 476v188l635 903h217v-903h35q141 0 246 51v-290q-90 51 -246 51h-35v-152q0 -210 57 -324h-331q57 114 57 324v152h-635zM326 664h391v555z" />
<glyph unicode="5" d="M123 116l141 273q55 -106 152.5 -166t216.5 -60q147 0 239.5 96.5t92.5 243.5q0 149 -93.5 249t-238.5 100q-217 0 -375 -80q31 131 31 252v252q0 178 -51 291h866l-94 -250q-140 62 -340 62h-152v-349q58 10 115 10q250 0 410 -165q73 -75 112 -171.5t39 -200.5 q0 -103 -39 -198.5t-112 -168.5q-160 -161 -410 -161q-297 0 -510 141z" />
<glyph unicode="6" d="M96 508q0 161 70 278l375 625q45 82 45 156h332q-73 -51 -146 -184l-192 -347q36 4 65 4q230 0 389 -152q160 -154 160 -380t-160 -380q-159 -153 -389 -153t-388 153q-161 154 -161 380zM325 508q0 -150 90.5 -247.5t229.5 -97.5t229.5 97t90.5 248q0 150 -90.5 247 t-229.5 97t-229.5 -97t-90.5 -247z" />
<glyph unicode="7" d="M88 1313l80 254h1032q-72 -96 -127 -227l-414 -1043q-34 -87 -50 -169.5t-9 -127.5h-356q96 96 215 395l391 984h-422q-186 0 -340 -66z" />
<glyph unicode="8" d="M154 455q0 128 70.5 239.5t178.5 157.5q-87 43 -139.5 128.5t-52.5 188.5q0 191 119.5 306.5t314.5 115.5t314.5 -115.5t119.5 -306.5q0 -103 -52.5 -188.5t-139.5 -128.5q109 -39 179 -150t70 -247q0 -222 -133 -351t-358 -129t-358 129t-133 351zM383 455 q0 -132 71.5 -212t190.5 -80t190.5 80t71.5 212q0 131 -71.5 211t-190.5 80t-190.5 -80t-71.5 -211zM440 1169q0 -106 56.5 -170.5t148.5 -64.5t148.5 64.5t56.5 170.5t-56 170t-149 64t-149 -64t-56 -170z" />
<glyph unicode="9" d="M113 1059q0 222 155 377t377 155t377 -155t155 -377q0 -144 -76 -276l-352 -627q-45 -85 -45 -156h-331q72 51 145 185l193 346q-38 -4 -66 -4q-107 0 -204.5 40.5t-172.5 114.5q-74 75 -114.5 172.5t-40.5 204.5zM342 1059q0 -147 86 -245.5t217 -98.5t217 98.5 t86 245.5t-86 245.5t-217 98.5t-217 -98.5t-86 -245.5z" />
<glyph unicode=":" horiz-adv-x="645" d="M158 139q0 68 48.5 116t115.5 48q68 0 116 -48t48 -116q0 -67 -48 -115.5t-116 -48.5q-67 0 -115.5 48.5t-48.5 115.5zM158 952q0 68 48 116t116 48t116 -48t48 -116q0 -67 -48 -115.5t-116 -48.5q-67 0 -115.5 48.5t-48.5 115.5z" />
<glyph unicode=";" horiz-adv-x="645" d="M86 -344q135 270 135 467q0 101 -33 180h307q-14 -40 -35 -129q-23 -99 -39 -152q-62 -199 -192 -366h-143zM158 952q0 68 48 116t116 48t116 -48t48 -116q0 -67 -48 -115.5t-116 -48.5t-116 48t-48 116z" />
<glyph unicode="&#x3c;" horiz-adv-x="2048" d="M502 475v115l1044 475v-123l-901 -409l901 -410v-123z" />
<glyph unicode="=" horiz-adv-x="1933" d="M420 164v315q105 -51 246 -51h600q142 0 245 51v-315q-88 51 -245 51h-600q-156 0 -246 -51zM420 615v315q105 -51 246 -51h600q142 0 245 51v-315q-88 51 -245 51h-600q-156 0 -246 -51z" />
<glyph unicode="&#x3e;" horiz-adv-x="2048" d="M502 0v123l901 410l-901 409v123l1044 -475v-115z" />
<glyph unicode="?" horiz-adv-x="948" d="M74 1284v256q134 51 307 51q247 0 386.5 -133.5t139.5 -369.5q0 -207 -108 -330.5t-340 -181.5q-110 -31 -164 -115v299q182 0 286.5 87.5t104.5 240.5q0 149 -80.5 232t-224.5 83q-81 0 -164 -32.5t-143 -86.5zM168 139q0 68 48.5 116t115.5 48q68 0 116 -48t48 -116 q0 -67 -48 -115.5t-116 -48.5q-67 0 -115.5 48.5t-48.5 115.5z" />
<glyph unicode="@" horiz-adv-x="1933" d="M76 680q0 199 68 369t197 294q125 120 294 184t363 64q406 0 632.5 -229.5t226.5 -640.5q0 -246 -120 -407q-115 -156 -279 -156q-244 0 -348 207l-116 -147q-80 -23 -144 -23q-165 0 -258.5 107t-93.5 294q0 144 47 262t135 195q96 85 189 116t252 31h241 q-25 -52 -40 -158.5t-15 -224.5v-313q0 -76 43 -129t108 -53q92 0 153.5 111.5t61.5 287.5q0 330 -179.5 518t-495.5 188q-156 0 -292.5 -54.5t-237.5 -157.5t-154.5 -240.5t-53.5 -294.5q0 -329 180 -517t496 -188q104 0 175 20.5t133 68.5l110 -208q-77 -18 -201 -31.5 t-217 -13.5q-404 0 -632 230t-228 639zM705 661q0 -124 56 -200t149 -76q72 0 128 30.5t56 67.5v531q-99 18 -158 18q-122 0 -176.5 -88.5t-54.5 -282.5z" />
<glyph unicode="A" horiz-adv-x="1630" d="M61 0q102 103 218 366l536 1225l537 -1225q114 -262 217 -366h-385q0 198 -84 414l-25 61h-520l-25 -61q-84 -218 -84 -414h-385zM631 663h368l-184 463z" />
<glyph unicode="B" horiz-adv-x="1176" d="M144 0q27 61 44 181t17 245v715q0 119 -17.5 241t-43.5 185h397q250 0 377.5 -102t127.5 -302q0 -121 -65.5 -210.5t-181.5 -125.5q134 -26 213 -126t79 -242q0 -212 -143 -335.5t-391 -123.5h-413zM434 188h123q143 0 224 72t81 199q0 125 -80.5 196.5t-224.5 71.5h-123 v-539zM434 915h107q135 0 205.5 59.5t70.5 172.5q0 232 -276 232h-107v-464z" />
<glyph unicode="C" horiz-adv-x="1403" d="M96 784q0 369 228 592q107 105 252.5 160t314.5 55q174 0 344 -51v-283q-112 146 -344 146q-252 0 -400.5 -167t-148.5 -452t148.5 -453t400.5 -168q124 0 228 41.5t161 116.5v-282q-213 -64 -389 -64q-169 0 -314.5 55.5t-252.5 160.5q-228 224 -228 593z" />
<glyph unicode="D" horiz-adv-x="1442" d="M144 0q27 61 44 181t17 245v715q0 119 -17.5 241t-43.5 185h407q350 0 567 -203q228 -212 228 -579q0 -368 -228 -581q-217 -204 -567 -204h-407zM434 188h117q257 0 403 158t146 439q0 280 -146 437t-403 157h-117v-1191z" />
<glyph unicode="E" horiz-adv-x="1139" d="M144 0q27 61 44 181t17 245v715q0 119 -17.5 241t-43.5 185h954l-148 -250q-60 27 -180 44.5t-246 17.5h-90v-464h543l-148 -249q-57 25 -174.5 43t-220.5 18v-539h180q292 0 484 94l-84 -282h-870z" />
<glyph unicode="F" horiz-adv-x="1063" d="M144 0q27 61 44 181t17 245v715q0 119 -17.5 241t-43.5 185h917l-148 -250q-60 27 -180 44.5t-246 17.5h-53v-464h543l-148 -250q-57 26 -174 44t-221 18v-301q0 -119 17.5 -241t43.5 -185h-351z" />
<glyph unicode="G" horiz-adv-x="1593" d="M96 784q0 369 228 592q107 105 252.5 160t314.5 55q180 0 389 -63v-283q-57 75 -161 116.5t-228 41.5q-252 0 -400.5 -167t-148.5 -452t148.5 -453t400.5 -168q174 0 293 72v199q0 119 -17.5 241t-43.5 185h351q-27 -61 -44 -181t-17 -245v-352q-109 -47 -253.5 -77 t-268.5 -30q-169 0 -314.5 55.5t-252.5 160.5q-228 224 -228 593z" />
<glyph unicode="H" horiz-adv-x="1554" d="M144 0q27 60 44 181t17 245v715q0 119 -17.5 241t-43.5 185h351q-27 -61 -44 -181t-17 -245v-226h688v226q0 119 -17.5 241t-43.5 185h351q-27 -61 -44 -181t-17 -245v-715q0 -119 17.5 -241.5t43.5 -184.5h-351q27 60 44 181t17 245v301h-688v-301q0 -119 17.5 -241.5 t43.5 -184.5h-351z" />
<glyph unicode="I" horiz-adv-x="645" d="M146 0q27 61 44 181t17 245v715q0 119 -17.5 241t-43.5 185h351q-27 -61 -44 -181t-17 -245v-715q0 -119 17.5 -241t43.5 -185h-351z" />
<glyph unicode="J" horiz-adv-x="834" d="M16 -295q228 75 312 205q71 109 71 324v1145q-92 0 -204.5 -18.5t-168.5 -43.5l88 250h575q-26 -63 -43.5 -185t-17.5 -241v-936q0 -471 -579 -574z" />
<glyph unicode="K" horiz-adv-x="1403" d="M144 0q27 61 44 181t17 245v715q0 119 -17.5 241t-43.5 185h351q-27 -61 -44 -181t-17 -245v-289l348 494q82 113 90 221h408q-58 -38 -138 -124.5t-153 -189.5l-307 -424l385 -518q174 -233 291 -311h-428q0 43 -27.5 106.5t-71.5 124.5l-397 562v-367q0 -119 17.5 -241 t43.5 -185h-351z" />
<glyph unicode="L" horiz-adv-x="1100" d="M144 0q27 61 44 181t17 245v715q0 119 -17.5 241t-43.5 185h351q-27 -61 -44 -181t-17 -245v-953h180q292 0 484 94l-84 -282h-870z" />
<glyph unicode="M" horiz-adv-x="1896" d="M33 1567h401q8 -52 41 -124t78 -136l395 -561l395 561q45 64 78 136t41 124h401q-87 -61 -172 -166v-975q0 -125 17 -245t44 -181h-351q26 63 43.5 185t17.5 241v654l-514 -715l-514 715v-654q0 -119 17.5 -241t43.5 -185h-351q27 61 44 181t17 245v975q-85 105 -172 166 z" />
<glyph unicode="N" horiz-adv-x="1669" d="M33 1567h401q9 -51 43.5 -118.5t79.5 -125.5l678 -872v690q0 119 -17.5 241t-43.5 185h351q-27 -61 -44 -181t-17 -245v-715q0 -125 17 -245t44 -181h-290q-14 52 -49.5 120.5t-75.5 119.5l-676 866v-680q0 -119 17.5 -241t43.5 -185h-351q27 61 44 181t17 245v975 q-85 105 -172 166z" />
<glyph unicode="O" horiz-adv-x="1782" d="M96 784q0 369 228 592q107 105 252.5 160t314.5 55t314.5 -55t252.5 -160q228 -223 228 -592t-228 -593q-107 -105 -252.5 -160.5t-314.5 -55.5t-314.5 55.5t-252.5 160.5q-228 224 -228 593zM342 784q0 -285 148.5 -453t400.5 -168t400.5 168t148.5 453t-148.5 452 t-400.5 167t-400.5 -167t-148.5 -452z" />
<glyph unicode="P" horiz-adv-x="1063" d="M144 0q27 61 44 181t17 245v715q0 119 -17.5 241t-43.5 185h351q246 0 376 -121t130 -350t-130 -350t-376 -121h-61v-199q0 -125 17 -245t44 -181h-351zM434 813h61q145 0 211 67.5t66 215.5t-66 215.5t-211 67.5h-61v-566z" />
<glyph unicode="Q" horiz-adv-x="1782" d="M96 784q0 369 228 592q107 105 252.5 160t314.5 55t314.5 -55t252.5 -160q228 -223 228 -592q0 -333 -190 -551q-67 -76 -152.5 -131.5t-171.5 -79.5l141 -125q71 -63 177.5 -97t232.5 -34l-166 -94q-77 -41 -152 -41q-122 0 -227 90l-287 254q-169 0 -314.5 55.5 t-252.5 160.5q-228 224 -228 593zM342 784q0 -285 148.5 -453t400.5 -168t400.5 168t148.5 453t-148.5 452t-400.5 167t-400.5 -167t-148.5 -452z" />
<glyph unicode="R" d="M144 0q27 61 44 181t17 245v715q0 119 -17.5 241t-43.5 185h411q248 0 387 -124.5t139 -346.5q0 -173 -88 -291t-241 -156l241 -334q172 -238 285 -315h-422v5q0 87 -94 226l-328 482v-287q0 -125 17 -245t44 -181h-351zM434 813h121q297 0 297 283t-297 283h-121v-566z " />
<glyph unicode="S" horiz-adv-x="1063" d="M102 1227q0 157 121.5 260.5t306.5 103.5q209 0 361 -49v-264q-122 125 -328 125q-99 0 -157 -48.5t-58 -127.5q0 -123 137 -227l333 -255q82 -62 132 -158.5t50 -193.5q0 -193 -119 -305.5t-320 -112.5q-215 0 -428 64v282q67 -73 176 -115.5t226 -42.5q89 0 154 57.5 t65 131.5q0 131 -127 229l-285 220q-240 186 -240 426z" />
<glyph unicode="T" d="M26 1317l88 250h1157l-86 -250q-60 27 -180 44.5t-246 17.5v-953q0 -125 17 -245t44 -181h-351q27 61 44 181t17 245v953h-131q-89 0 -205 -19t-168 -43z" />
<glyph unicode="U" horiz-adv-x="1630" d="M144 1567h351q-27 -61 -44 -181t-17 -245v-599q0 -182 101.5 -280.5t287.5 -98.5q152 0 262.5 81t110.5 190v707q0 119 -17.5 241t-43.5 185h351q-27 -61 -44 -181t-17 -245v-716q0 -119 17.5 -240.5t43.5 -184.5h-290v153q-68 -80 -194 -129t-265 -49q-242 0 -387 153.5 t-145 413.5v599q0 119 -17.5 241t-43.5 185z" />
<glyph unicode="V" horiz-adv-x="1593" d="M61 1567h349q0 -117 61 -287l326 -865l325 865q62 173 62 287h348q-122 -158 -203 -367l-459 -1200h-147l-459 1200q-84 219 -203 367z" />
<glyph unicode="W" horiz-adv-x="1933" d="M49 1567h316q0 -122 49 -289l209 -739l344 1052l344 -1052l209 739q49 173 49 289h315q-90 -145 -158 -367l-335 -1200h-125l-299 901l-299 -901h-125l-336 1200q-65 218 -158 367z" />
<glyph unicode="X" horiz-adv-x="1403" d="M43 0q97 84 227 311l301 525l-239 420q-56 97 -121.5 184t-112.5 127h369q8 -107 72 -221l161 -283l162 283q64 114 72 221h369q-47 -40 -112.5 -127t-121.5 -184l-240 -420l301 -525q133 -230 228 -311h-367q0 46 -20 110t-53 122l-218 381l-217 -381q-33 -58 -53 -122 t-20 -110h-367z" />
<glyph unicode="Y" horiz-adv-x="1327" d="M6 1567h367q0 -45 20.5 -108.5t53.5 -122.5l217 -381l216 381q33 59 53.5 122.5t20.5 108.5h367q-95 -81 -228 -311l-315 -547v-283q0 -119 17.5 -241t43.5 -185h-351q27 61 44 181t17 245v283l-315 547q-133 230 -228 311z" />
<glyph unicode="Z" horiz-adv-x="1251" d="M51 0q116 156 236 399l483 980h-291q-123 0 -209.5 -21t-183.5 -74l84 283h989q-116 -153 -198 -319l-523 -1060h301q297 0 484 94l-84 -282h-1088z" />
<glyph unicode="[" horiz-adv-x="872" d="M160 -369q27 61 44 181t17 245v1108q0 119 -17.5 241t-43.5 185h553v-188q-145 53 -279 53v-1690q134 0 279 53v-188h-553z" />
<glyph unicode="\" horiz-adv-x="909" d="M4 1591h289q0 -90 24 -155l463 -1276q22 -60 56 -110.5t69 -74.5h-289q0 91 -24 156l-463 1276q-22 60 -56.5 110.5t-68.5 73.5z" />
<glyph unicode="]" horiz-adv-x="872" d="M159 -181q145 -53 279 -53v1690q-134 0 -279 -53v188h553q-26 -63 -43.5 -185t-17.5 -241v-1108q0 -125 17 -245t44 -181h-553v188z" />
<glyph unicode="^" horiz-adv-x="1024" d="M199 961l288 411h50l290 -411l-24 -23l-291 229l-291 -229z" />
<glyph unicode="_" horiz-adv-x="1024" d="M0 -408h1024v-104h-1024v104z" />
<glyph unicode="`" d="M379 1608h326q5 -71 43.5 -171.5t99.5 -197.5h-189q-127 194 -280 369z" />
<glyph unicode="a" horiz-adv-x="948" d="M82 242q0 94 30 152.5t107 118.5q93 71 200.5 127.5t176.5 72.5v55q0 88 -54 136t-153 48q-150 0 -272 -78l67 214q116 28 254 28q177 0 274 -96t97 -270v-426q0 -210 57 -324h-270v111l-129 -123q-65 -13 -143 -13q-104 0 -173 74.5t-69 192.5zM295 324 q0 -101 28.5 -147t92.5 -46q85 0 132.5 15t47.5 42v337h-125q-100 0 -138 -41.5t-38 -159.5z" />
<glyph unicode="b" horiz-adv-x="1100" d="M78 0q27 61 44 181t17 245v842q0 71 -16 145t-41 123l327 55q-57 -112 -57 -323v-348l135 172q84 24 158 24q184 0 287.5 -118t103.5 -326q0 -164 -51 -296.5t-148 -217.5q-104 -91 -206 -124.5t-285 -33.5h-268zM352 189q117 -25 199 -25q144 0 211 105t67 329 q0 158 -65 244t-185 86q-81 0 -154 -40.5t-73 -82.5v-616z" />
<glyph unicode="c" horiz-adv-x="948" d="M74 487q0 142 36 242.5t120 193.5q90 102 181.5 147.5t205.5 45.5q141 0 227 -26l-60 -216q-39 36 -97 57t-118 21q-132 0 -203 -106.5t-71 -299.5q0 -184 88.5 -284.5t251.5 -100.5q139 0 258 90l-86 -247q-105 -29 -260 -29q-205 0 -339 146t-134 366z" />
<glyph unicode="d" horiz-adv-x="1139" d="M63 488q0 261 178 448q90 94 181 137t202 43q84 0 162 -24v176q0 71 -16 145t-41 123l327 55q-57 -112 -57 -323v-945q0 -211 57 -323h-270v161l-137 -169q-68 -17 -156 -17q-179 0 -304.5 149.5t-125.5 363.5zM284 547q0 -193 94 -297q78 -87 189 -87q70 0 144.5 33 t74.5 66v590q-93 100 -236 100q-129 0 -197.5 -105.5t-68.5 -299.5z" />
<glyph unicode="e" horiz-adv-x="985" d="M63 488q0 294 176 466q91 90 166.5 126t170.5 36q168 0 262 -122.5t94 -341.5q0 -84 -2 -119h-646q8 -181 91 -276.5t233 -95.5q157 0 273 92l-70 -249q-151 -29 -256 -29q-222 0 -357 139.5t-135 373.5zM288 668h419q0 148 -41 216t-131 68q-213 0 -247 -284z" />
<glyph unicode="f" horiz-adv-x="645" d="M15 957l84 135h106q0 244 131 378q65 67 118.5 94t123.5 27q80 0 147 -36l-53 -198q-54 70 -156 70q-44 0 -71 -36.5t-27 -96.5v-202h207v-135h-207v-633q0 -210 57 -324h-327q57 114 57 324v633h-190z" />
<glyph unicode="g" horiz-adv-x="985" d="M51 -168q0 41 47 87t160 115q-72 23 -118 64t-46 82q0 36 61 83q31 22 63 44q43 31 71 53q-99 50 -151 133t-52 189q0 182 135 309q71 68 142 96.5t167 28.5q99 0 195 -53q158 0 231 29v-155h-114q45 -74 45 -176q0 -183 -135 -307q-75 -68 -145.5 -96.5t-164.5 -28.5 q-40 0 -72 6q-16 -16 -32 -31q-15 -15 -15 -26q0 -17 37 -32t84 -15h189q148 0 230.5 -61.5t82.5 -171.5q0 -133 -172 -256q-155 -111 -369 -111q-180 0 -267 49t-87 152zM241 -94q0 -63 58.5 -93t181.5 -30q153 0 217 31t64 106q0 45 -33.5 69.5t-95.5 24.5h-236 q-38 0 -64 4q-56 -44 -74 -66.5t-18 -45.5zM283 723q0 -109 59.5 -176.5t156.5 -67.5q90 0 140.5 64.5t50.5 179.5q0 108 -60 175.5t-157 67.5q-90 0 -140 -64t-50 -179z" />
<glyph unicode="h" horiz-adv-x="1100" d="M82 0q57 114 57 324v944q0 71 -16 145t-41 123l327 55q-57 -116 -57 -323v-348l135 172q86 24 164 24q151 0 233.5 -95t82.5 -269v-428q0 -210 57 -324h-327q57 117 57 324v428q0 80 -46.5 128t-127.5 48t-154.5 -40.5t-73.5 -82.5v-481q0 -207 57 -324h-327z" />
<glyph unicode="i" horiz-adv-x="494" d="M82 0q57 114 57 324v445q0 209 -57 323h327q-57 -114 -57 -323v-445q0 -210 57 -324h-327zM92 1414q0 62 45.5 107.5t108.5 45.5q62 0 107.5 -45.5t45.5 -107.5q0 -63 -45.5 -108.5t-107.5 -45.5q-63 0 -108.5 45.5t-45.5 108.5z" />
<glyph unicode="j" horiz-adv-x="494" d="M-21 -344q93 61 126.5 127t33.5 182v804q0 209 -57 323h327q-57 -114 -57 -323v-804q0 -124 -89 -203.5t-284 -130.5v25zM92 1414q0 62 45.5 107.5t108.5 45.5q62 0 107.5 -45.5t45.5 -107.5q0 -63 -45.5 -108.5t-107.5 -45.5q-63 0 -108.5 45.5t-45.5 108.5z" />
<glyph unicode="k" horiz-adv-x="985" d="M82 0q57 114 57 323v944q0 71 -16 145.5t-41 123.5l327 55q-57 -112 -57 -324v-624l213 297q49 66 49 152h320q-56 -40 -156 -178l-211 -293l258 -439q86 -146 137 -182h-319q0 91 -37 151l-254 433v-261q0 -209 57 -323h-327z" />
<glyph unicode="l" horiz-adv-x="494" d="M82 0q57 114 57 324v944q0 71 -16 145t-41 123l327 55q-57 -112 -57 -323v-944q0 -210 57 -324h-327z" />
<glyph unicode="m" horiz-adv-x="1706" d="M82 0q57 114 57 324v444q0 210 -57 324h270v-172l135 172q84 24 164 24q114 0 188 -56t101 -163l102 179q41 17 103 28.5t113 11.5q149 0 228 -93.5t79 -270.5v-428q0 -210 57 -324h-327q57 117 57 324v428q0 83 -43.5 129.5t-122.5 46.5q-81 0 -154.5 -40.5t-73.5 -82.5 v-481q0 -207 57 -324h-327q57 114 57 324v428q0 83 -43.5 129.5t-122.5 46.5q-81 0 -154 -40.5t-73 -82.5v-481q0 -210 57 -324h-327z" />
<glyph unicode="n" horiz-adv-x="1100" d="M82 0q57 114 57 324v444q0 210 -57 324h270v-172l135 172q86 24 164 24q151 0 233.5 -95t82.5 -269v-428q0 -210 57 -324h-327q57 117 57 324v428q0 80 -46.5 128t-127.5 48t-154.5 -40.5t-73.5 -82.5v-481q0 -207 57 -324h-327z" />
<glyph unicode="o" horiz-adv-x="1139" d="M63 489q0 135 42 242t134 205q90 96 180 138t205 42q193 0 322 -147t129 -365q0 -136 -42.5 -244t-133.5 -205q-90 -96 -180 -138t-205 -42q-193 0 -322 147.5t-129 366.5zM284 547q0 -187 86.5 -297.5t235.5 -110.5q113 0 180.5 112t67.5 296q0 186 -86.5 295.5 t-235.5 109.5q-113 0 -180.5 -111t-67.5 -294z" />
<glyph unicode="p" horiz-adv-x="1139" d="M82 -344q57 114 57 323v790q0 209 -57 323h270v-162l137 170q69 16 156 16q179 0 304.5 -149t125.5 -362q0 -135 -43 -244t-135 -206q-91 -94 -182 -137t-201 -43q-81 0 -162 25v-21q0 -209 57 -323h-327zM352 240q93 -101 236 -101q128 0 197 106t69 300q0 193 -94 297 q-78 86 -189 86q-70 0 -144.5 -33t-74.5 -65v-590z" />
<glyph unicode="q" horiz-adv-x="1100" d="M61 419q0 165 51 297.5t148 217.5q104 91 206 124.5t285 33.5h268q-27 -61 -44 -181.5t-17 -245.5v-686q0 -209 57 -323h-327q57 114 57 323v192l-135 -171q-82 -25 -158 -25q-184 0 -287.5 118t-103.5 326zM268 493q0 -158 65 -244t185 -86q81 0 154 40.5t73 82.5v617 q-117 25 -199 25q-144 0 -211 -105t-67 -330z" />
<glyph unicode="r" horiz-adv-x="758" d="M82 0q57 114 57 324v444q0 210 -57 324h270v-172l135 172q74 24 164 24q72 0 104 -18l-63 -250q-56 43 -156 43q-184 0 -184 -139v-428q0 -210 57 -324h-327z" />
<glyph unicode="s" horiz-adv-x="721" d="M61 770q0 142 96 238q108 108 256 108q104 0 212 -26l-52 -218q-81 64 -193 64q-61 0 -96 -25t-35 -67q0 -75 103 -144l168 -110q83 -55 121.5 -119.5t38.5 -147.5q0 -134 -99 -237q-106 -111 -258 -111q-120 0 -258 29l37 221q91 -70 250 -70q59 0 97 30.5t38 76.5 q0 77 -103 143l-184 121q-139 92 -139 244z" />
<glyph unicode="t" horiz-adv-x="682" d="M25 957l340 419v-284h279v-135h-279v-671q0 -59 31.5 -92t87.5 -33q115 0 182 47l-57 -208q-106 -25 -187 -25q-128 0 -199 74.5t-71 209.5v698h-127z" />
<glyph unicode="u" horiz-adv-x="1100" d="M74 1092h327q-57 -114 -57 -324v-428q0 -81 46.5 -129t127.5 -48t154 40.5t73 82.5v482q0 210 -57 324h327q-57 -114 -57 -324v-445q0 -211 57 -323h-270v171l-135 -171q-82 -25 -164 -25q-151 0 -233 95t-82 270v428q0 210 -57 324z" />
<glyph unicode="v" horiz-adv-x="985" d="M16 1092h309q-19 -40 -19 -91q0 -45 15 -99l170 -634l170 634q15 54 15 99q0 51 -19 91h309q-42 -53 -84 -186l-209 -705q-17 -57 -41 -201h-282q-24 144 -41 201l-209 705q-42 133 -84 186z" />
<glyph unicode="w" horiz-adv-x="1442" d="M16 1092h310q-16 -40 -16 -96q0 -42 9 -94l121 -624l152 654q17 76 17 131q0 15 -1 29h223q-1 -12 -2 -27q0 -54 19 -133l153 -654l121 624q11 52 11 96q0 54 -17 94h309q-57 -73 -84 -186l-155 -705q-23 -94 -39 -201h-260q-3 41 -41 203l-125 539l-125 -539 q-38 -162 -41 -203h-260q-13 89 -39 201l-156 705q-26 113 -84 186z" />
<glyph unicode="x" horiz-adv-x="985" d="M18 0q72 50 146 184l211 377l-193 347q-73 134 -145 184h319q0 -53 45 -156l91 -192l90 192q45 103 45 156h319q-72 -50 -145 -184l-193 -347l211 -377q73 -133 146 -184h-320q0 60 -45 156l-108 227l-109 -227q-45 -96 -45 -156h-320z" />
<glyph unicode="y" horiz-adv-x="1024" d="M16 1092h310q-10 -30 -10 -64q0 -54 24 -120l195 -545l172 539q18 55 18 105q0 44 -14 85h297q-41 -61 -84 -186l-322 -947q-55 -162 -173.5 -238.5t-334.5 -89.5v25q113 41 181.5 113t111.5 196l41 117l-315 826q-48 124 -97 184z" />
<glyph unicode="z" horiz-adv-x="797" d="M51 0q38 55 88 182l312 769h-119q-87 0 -148 -14.5t-127 -51.5l64 207h629q-38 -55 -88 -182l-312 -769h86q206 0 338 66l-63 -207h-660z" />
<glyph unicode="{" horiz-adv-x="909" d="M82 611q119 48 171 103t52 132v475q0 126 81.5 198t223.5 72h217v-188q-145 53 -207 53q-102 0 -102 -111v-499q0 -163 -143 -235q143 -73 143 -242v-486q0 -63 23.5 -90t78.5 -27q37 0 76 9.5t131 43.5v-188h-217q-142 0 -223.5 71.5t-81.5 196.5v470q0 79 -53 136.5 t-170 105.5z" />
<glyph unicode="|" horiz-adv-x="1024" d="M461 -512v2048h104v-2048h-104z" />
<glyph unicode="}" horiz-adv-x="909" d="M82 -181q92 -34 131 -43.5t76 -9.5q55 0 78.5 27t23.5 90v486q0 169 143 242q-143 72 -143 235v499q0 111 -102 111q-62 0 -207 -53v188h217q142 0 223.5 -72t81.5 -198v-475q0 -77 52 -132t171 -103q-117 -48 -170 -105.5t-53 -136.5v-470q0 -125 -81.5 -196.5 t-223.5 -71.5h-217v188z" />
<glyph unicode="~" horiz-adv-x="2048" d="M410 555q80 120 154.5 171.5t166.5 51.5q67 0 134.5 -24.5t203.5 -98.5q148 -81 207 -106t108 -25q60 0 109 28t123 103l22 -23q-80 -121 -153 -172t-166 -51q-69 0 -137 24t-199 95q-170 91 -224 114t-95 23q-58 0 -107.5 -28t-124.5 -105z" />
<glyph unicode="&#xa1;" horiz-adv-x="645" d="M133 -475q34 78 58 200.5t24 224.5v449q0 86 24.5 147.5t82.5 118.5q57 -57 81.5 -118.5t24.5 -147.5v-449q0 -105 24.5 -227.5t58.5 -197.5h-378zM158 952q0 68 48 116t116 48t116 -48t48 -116q0 -67 -48 -115.5t-116 -48.5t-116 48t-48 116z" />
<glyph unicode="&#xa2;" d="M188 725q0 142 36 242.5t120 193.5q108 122 223 164v242h156v-213q148 0 236 -27l-60 -215q-66 63 -176 76v-789q160 -6 285 90l-86 -247q-98 -27 -199 -27v-215h-156v221q-171 36 -275 174.5t-104 329.5zM409 784q0 -249 158 -342v721q-76 -40 -117 -138.5t-41 -240.5z " />
<glyph unicode="&#xa3;" d="M110 727v188h160q-6 62 -6 158q0 239 134 378.5t361 139.5q163 0 322 -55v-262q-148 129 -322 129q-115 0 -182 -89t-67 -241q0 -56 4 -158h362v-188h-348q12 -180 12 -312q0 -125 -36 -227h380q191 0 340 66l-80 -254h-964q62 82 100.5 186t38.5 193q0 153 -26 348h-183 z" />
<glyph unicode="&#xa4;" d="M109 366l147 148q-86 115 -86 271q0 155 86 270l-147 147l118 119l145 -145q114 84 273 84q154 0 271 -86l147 147l118 -119l-147 -147q86 -115 86 -270q0 -156 -86 -271l147 -148l-118 -118l-147 147q-117 -86 -271 -86t-271 86l-147 -147zM354 785q0 -121 85.5 -206.5 t205.5 -85.5t205.5 85.5t85.5 206.5q0 120 -85.5 205.5t-205.5 85.5t-205.5 -85.5t-85.5 -205.5z" />
<glyph unicode="&#xa5;" d="M10 1567h366q0 -45 20.5 -108.5t53.5 -122.5l195 -349l194 349q33 59 53.5 122.5t20.5 108.5h366q-99 -86 -227 -311l-293 -515v-88h285v-135h-285v-92h285v-135h-279q11 -189 55 -291h-351q44 102 55 291h-279v135h285v92h-285v135h285v88l-293 515q-128 225 -227 311z " />
<glyph unicode="&#xa6;" horiz-adv-x="1024" d="M461 -461v922h104v-922h-104zM461 563v922h104v-922h-104z" />
<glyph unicode="&#xa7;" d="M166 649q0 111 55.5 192.5t159.5 123.5q-154 125 -154 292q0 145 120.5 239.5t307.5 94.5q206 0 361 -42v-261q-142 115 -328 115q-113 0 -172.5 -37.5t-59.5 -108.5q0 -54 33 -96t113 -87l336 -199q82 -49 134 -132.5t52 -168.5q0 -112 -56 -193.5t-159 -122.5 q154 -122 154 -293q0 -145 -120.5 -239.5t-307.5 -94.5q-202 0 -361 43v260q142 -115 328 -115q113 0 172.5 37.5t59.5 108.5q0 54 -32.5 95.5t-113.5 89.5l-336 198q-82 49 -134 132.5t-52 168.5zM395 660q0 -53 32 -93t111 -86l132 -75q107 2 166 43t59 114q0 53 -32 93 t-111 86l-132 75q-106 -2 -165.5 -43.5t-59.5 -113.5z" />
<glyph unicode="&#xa8;" d="M307 1399q0 59 42 101t102 42q59 0 101 -42t42 -101q0 -60 -42 -102t-101 -42q-60 0 -102 42t-42 102zM696 1399q0 59 42 101t102 42q59 0 101 -42t42 -101q0 -60 -42 -102t-101 -42q-60 0 -102 42t-42 102z" />
<glyph unicode="&#xa9;" horiz-adv-x="1024" d="M41 1120q0 195 138 333t333 138t333 -138t138 -333t-138 -333t-333 -138t-333 138t-138 333zM100 1120q0 -170 121 -291t291 -121q171 0 291.5 120.5t120.5 291.5q0 170 -121 291t-291 121t-291 -121.5t-121 -290.5zM262 1122q0 126 77.5 203.5t201.5 77.5q67 0 121 -19 v-98q-39 51 -121 51q-88 0 -140.5 -58t-52.5 -157q0 -100 52.5 -159.5t140.5 -59.5q93 0 135 55v-98q-66 -23 -135 -23q-124 0 -201.5 78.5t-77.5 206.5z" />
<glyph unicode="&#xaa;" horiz-adv-x="797" d="M41 492v237q103 -51 246 -51h223q142 0 245 51v-237q-88 51 -245 51h-223q-158 0 -246 -51zM104 971q0 66 22.5 107t80.5 83q70 50 150.5 89.5t131.5 49.5v39q0 62 -40 95.5t-113 33.5q-116 0 -205 -53l51 150q88 18 190 18q133 0 205 -67t72 -189v-299q0 -144 43 -225 h-203v78l-96 -87q-55 -10 -106 -10q-79 0 -131 52.5t-52 134.5zM264 1028q0 -133 90 -133q135 0 135 39v235h-92q-75 0 -104 -29t-29 -112z" />
<glyph unicode="&#xab;" horiz-adv-x="948" d="M20 547l144 307q45 99 45 156h317q-36 -26 -78 -78.5t-67 -105.5l-129 -279l129 -279q25 -53 67 -105.5t78 -78.5h-317q0 57 -45 156zM438 547l144 307q45 103 45 156h317q-36 -26 -78 -78.5t-67 -105.5l-129 -279l129 -279q25 -53 67 -105.5t78 -78.5h-317q0 53 -45 156 z" />
<glyph unicode="&#xac;" horiz-adv-x="1933" d="M430 606v131h1073v-553h-131v422h-942z" />
<glyph unicode="&#xad;" horiz-adv-x="645" d="M51 389v315q105 -51 246 -51h51q141 0 246 51v-315q-90 51 -246 51h-51q-156 0 -246 -51z" />
<glyph unicode="&#xae;" horiz-adv-x="1024" d="M41 1120q0 195 138 333t333 138t333 -138t138 -333t-138 -333t-333 -138t-333 138t-138 333zM100 1120q0 -170 121 -291t291 -121t291 121t121 291t-121 291t-291 121t-291 -121t-121 -291zM356 846q21 45 21 149v250q0 95 -21 150h144q86 0 135 -44t49 -120 q0 -62 -31 -103t-86 -54l86 -118q58 -80 101 -110h-150q3 32 -33 82l-114 167v-100q0 -98 22 -149h-123zM457 1130h43q104 0 104 101q0 98 -104 98h-43v-199z" />
<glyph unicode="&#xaf;" horiz-adv-x="1024" d="M0 1536v104h1024v-104h-1024z" />
<glyph unicode="&#xb0;" horiz-adv-x="1063" d="M168 1229q0 150 106 256t257 106q150 0 256 -106t106 -256q0 -151 -106 -257t-256 -106q-151 0 -257 106t-106 257zM346 1229q0 -77 54 -131t131 -54t130.5 54t53.5 131t-53.5 130.5t-130.5 53.5t-131 -53.5t-54 -130.5z" />
<glyph unicode="&#xb1;" horiz-adv-x="1933" d="M420 153q103 -51 245 -51h601q140 0 245 51v-315q-88 51 -245 51h-601q-157 0 -245 -51v315zM420 596v315q103 -51 245 -51h195v193q0 142 -51 245h315q-51 -88 -51 -245v-193h193q140 0 245 51v-315q-88 51 -245 51h-193v-195q0 -156 51 -246h-315q51 105 51 246v195 h-195q-157 0 -245 -51z" />
<glyph unicode="&#xb2;" horiz-adv-x="797" d="M80 785l399 425q70 74 70 142q0 60 -41 96.5t-109 36.5q-65 0 -106 -38t-41 -95q0 -24 12 -58l-151 35q0 113 79 181.5t207 68.5q126 0 207.5 -64t81.5 -163q0 -94 -104 -205l-252 -268h180q113 0 205 33l-47 -127h-590z" />
<glyph unicode="&#xb3;" horiz-adv-x="797" d="M84 841l84 138q33 -53 92 -83t129 -30q89 0 145 48.5t56 122.5q0 79 -57 126t-154 47h-108l208 263h-141q-113 0 -205 -33l47 127h529l-215 -275q105 -23 169 -93t64 -162q0 -112 -96 -188.5t-242 -76.5q-173 0 -305 69z" />
<glyph unicode="&#xb4;" d="M442 1239q61 98 100 198t44 171h325q-147 -168 -280 -369h-189z" />
<glyph unicode="&#xb5;" horiz-adv-x="1139" d="M-102 -369l385 1344h184l-170 -604q-77 -269 168 -269q103 0 188.5 81t122.5 210l166 582h184l-221 -773q-21 -77 -23.5 -121t11.5 -81h-184q-15 50 -15 114q-95 -145 -272 -145q-165 0 -205 121l-135 -459h-184z" />
<glyph unicode="&#xb6;" d="M100 1132q0 179 128 307t307 128h655v-205q-77 48 -184 60v-1377q0 -246 41 -389h-246q41 143 41 389v1379h-164v-1379q0 -246 41 -389h-246q41 143 41 389v654q-174 9 -294 134t-120 299z" />
<glyph unicode="&#xb7;" horiz-adv-x="266" d="M-20 785q0 62 45.5 107.5t108.5 45.5q62 0 107.5 -45.5t45.5 -107.5q0 -63 -45.5 -108.5t-107.5 -45.5q-63 0 -108.5 45.5t-45.5 108.5z" />
<glyph unicode="&#xb8;" d="M490 -344l14 133q55 -45 127 -45q42 0 67 20t25 54q0 31 -23 50t-61 19q-37 0 -72 -10l31 123q125 0 196.5 -52t71.5 -141q0 -82 -61 -129t-168 -47q-72 0 -147 25z" />
<glyph unicode="&#xb9;" horiz-adv-x="797" d="M185 1385l278 194v-632q0 -106 35 -162h-201q35 56 35 162v438h-147z" />
<glyph unicode="&#xba;" horiz-adv-x="797" d="M18 1145q0 180 133 313q67 67 134.5 96t154.5 29q145 0 241.5 -102.5t96.5 -256.5q0 -179 -133 -313q-67 -67 -135 -97t-154 -30q-144 0 -241 104t-97 257zM41 492v237q103 -51 245 -51h224q142 0 245 51v-237q-88 51 -245 51h-224q-157 0 -245 -51zM184 1186 q0 -131 65 -209t177 -78q85 0 135.5 79t50.5 208t-65 205.5t-177 76.5q-85 0 -135.5 -77.5t-50.5 -204.5z" />
<glyph unicode="&#xbb;" horiz-adv-x="948" d="M2 84q37 26 79 79t66 105l129 279l-129 279q-24 52 -66 105t-79 79h317q0 -54 46 -156l143 -307l-143 -307q-46 -102 -46 -156h-317zM420 84q36 26 78 78.5t67 105.5l129 279l-129 279q-25 53 -67 105.5t-78 78.5h317q0 -53 45 -156l144 -307l-144 -307 q-45 -103 -45 -156h-317z" />
<glyph unicode="&#xbc;" horiz-adv-x="1933" d="M198 1329l301 254v-823q0 -141 37 -211h-215q37 76 37 211v569h-160zM442 -25q37 25 76 76t65 109l574 1276q29 63 39 155h295q-81 -50 -142 -186l-573 -1276q-32 -68 -39 -154h-295zM1140 309v121l412 588h141v-588h23q90 0 159 35v-191q-61 35 -159 35h-23v-98 q0 -141 37 -211h-215q37 70 37 211v98h-412zM1298 430h254v363z" />
<glyph unicode="&#xbd;" horiz-adv-x="1933" d="M198 1329l301 254v-823q0 -141 37 -211h-215q37 76 37 211v569h-160zM442 -25q37 25 76 76t65 109l574 1276q31 66 39 155h295q-37 -23 -75 -74t-66 -112l-574 -1276q-32 -66 -39 -154h-295zM1163 0l432 553q76 94 76 184q0 77 -44.5 125.5t-117.5 48.5 q-70 0 -114.5 -49.5t-44.5 -124.5q0 -39 12 -74l-164 45q0 146 86 236t225 90q136 0 224 -83.5t88 -213.5q0 -120 -115 -264l-272 -350h196q128 0 222 43l-52 -166h-637z" />
<glyph unicode="&#xbe;" horiz-adv-x="1933" d="M90 624l92 177q35 -68 98 -107t140 -39q96 0 156.5 62.5t60.5 159.5q0 103 -61 165t-166 62h-119l227 340h-153q-128 0 -222 -43l52 166h571l-231 -359q113 -30 181 -120.5t68 -210.5q0 -146 -103.5 -245.5t-260.5 -99.5q-190 0 -330 92zM442 -25q38 25 77 76t65 109 l573 1276q32 69 39 155h295q-81 -50 -142 -186l-573 -1276q-32 -66 -39 -154h-295zM1140 309v121l412 588h141v-588h23q90 0 159 35v-191q-61 35 -159 35h-23v-98q0 -141 37 -211h-215q37 70 37 211v98h-412zM1298 430h254v362z" />
<glyph unicode="&#xbf;" horiz-adv-x="948" d="M41 4q0 207 107.5 330t341.5 182q109 29 164 114v-298q-183 0 -287.5 -87.5t-104.5 -240.5q0 -149 80.5 -232t225.5 -83q80 0 163.5 32t143.5 86v-255q-134 -51 -307 -51q-247 0 -387 133.5t-140 369.5zM453 952q0 68 48 116t116 48t116 -48t48 -116q0 -67 -48 -115.5 t-116 -48.5q-67 0 -115.5 48.5t-48.5 115.5z" />
<glyph unicode="&#xc0;" horiz-adv-x="1630" d="M61 0q102 103 218 366l536 1225l537 -1225q114 -262 217 -366h-385q0 198 -84 414l-25 61h-520l-25 -61q-84 -218 -84 -414h-385zM549 2038h326q5 -71 43.5 -171.5t99.5 -197.5h-189q-127 194 -280 369zM631 663h368l-184 463z" />
<glyph unicode="&#xc1;" horiz-adv-x="1630" d="M61 0q102 103 218 366l536 1225l537 -1225q114 -262 217 -366h-385q0 198 -84 414l-25 61h-520l-25 -61q-84 -218 -84 -414h-385zM612 1669q61 98 100 198t44 171h325q-147 -168 -280 -369h-189zM631 663h368l-184 463z" />
<glyph unicode="&#xc2;" horiz-adv-x="1630" d="M61 0q102 103 218 366l536 1225l537 -1225q114 -262 217 -366h-385q0 198 -84 414l-25 61h-520l-25 -61q-84 -218 -84 -414h-385zM494 1669q61 97 99.5 197.5t43.5 171.5h356q5 -71 44 -171t100 -198h-168l-154 215l-153 -215h-168zM631 663h368l-184 463z" />
<glyph unicode="&#xc3;" horiz-adv-x="1630" d="M61 0q102 103 218 366l536 1225l537 -1225q114 -262 217 -366h-385q0 198 -84 414l-25 61h-520l-25 -61q-84 -218 -84 -414h-385zM487 1700v205q92 55 191 55q65 0 164 -43t141 -43q91 0 174 72v-205q-90 -55 -190 -55q-65 0 -164 43t-141 43q-91 0 -175 -72zM631 663 h368l-184 463z" />
<glyph unicode="&#xc4;" horiz-adv-x="1630" d="M61 0q102 103 218 366l536 1225l537 -1225q114 -262 217 -366h-385q0 198 -84 414l-25 61h-520l-25 -61q-84 -218 -84 -414h-385zM477 1829q0 59 42 101t102 42q59 0 101 -42t42 -101q0 -60 -42 -102t-101 -42q-60 0 -102 42t-42 102zM631 663h368l-184 463zM866 1829 q0 59 42 101t102 42q59 0 101 -42t42 -101q0 -60 -42 -102t-101 -42q-60 0 -102 42t-42 102z" />
<glyph unicode="&#xc5;" horiz-adv-x="1630" d="M61 0q102 103 218 366l536 1225l537 -1225q114 -262 217 -366h-385q0 198 -84 414l-25 61h-520l-25 -61q-84 -218 -84 -414h-385zM610 1850q0 84 60 144t145 60t145 -60t60 -144q0 -85 -60 -145t-145 -60t-145 60t-60 145zM631 663h368l-184 463zM712 1850q0 -43 30 -73 t73 -30q44 0 73.5 30t29.5 73t-30 72.5t-73 29.5t-73 -29.5t-30 -72.5z" />
<glyph unicode="&#xc6;" horiz-adv-x="2009" d="M20 0q146 127 279 367l674 1200h995l-148 -250q-60 27 -180 44.5t-246 17.5h-90v-464h543l-148 -249q-56 25 -172.5 43t-222.5 18v-539h180q293 0 484 95l-84 -283h-870q27 61 44 181.5t17 245.5v49h-487l-45 -84q-77 -143 -107.5 -230.5t-30.5 -161.5h-385zM692 664h383 v477q0 95 -12 203z" />
<glyph unicode="&#xc7;" horiz-adv-x="1403" d="M96 784q0 369 228 592q107 105 252.5 160t314.5 55q174 0 344 -51v-283q-112 146 -344 146q-252 0 -400.5 -167t-148.5 -452t148.5 -453t400.5 -168q124 0 228 41.5t161 116.5v-282q-213 -64 -389 -64q-169 0 -314.5 55.5t-252.5 160.5q-228 224 -228 593zM650 -344 l14 133q55 -45 127 -45q42 0 67 20t25 54q0 31 -23 50t-61 19q-37 0 -72 -10l31 123q125 0 196.5 -52t71.5 -141q0 -82 -61 -129t-168 -47q-72 0 -147 25z" />
<glyph unicode="&#xc8;" horiz-adv-x="1139" d="M144 0q27 61 44 181t17 245v715q0 119 -17.5 241t-43.5 185h954l-148 -250q-60 27 -180 44.5t-246 17.5h-90v-464h543l-148 -249q-57 25 -174.5 43t-220.5 18v-539h180q292 0 484 94l-84 -282h-870zM303 2038h326q5 -71 43.5 -171.5t99.5 -197.5h-189q-127 194 -280 369z " />
<glyph unicode="&#xc9;" horiz-adv-x="1139" d="M144 0q27 61 44 181t17 245v715q0 119 -17.5 241t-43.5 185h954l-148 -250q-60 27 -180 44.5t-246 17.5h-90v-464h543l-148 -249q-57 25 -174.5 43t-220.5 18v-539h180q292 0 484 94l-84 -282h-870zM366 1669q61 98 100 198t44 171h325q-147 -168 -280 -369h-189z" />
<glyph unicode="&#xca;" horiz-adv-x="1139" d="M144 0q27 61 44 181t17 245v715q0 119 -17.5 241t-43.5 185h954l-148 -250q-60 27 -180 44.5t-246 17.5h-90v-464h543l-148 -249q-57 25 -174.5 43t-220.5 18v-539h180q292 0 484 94l-84 -282h-870zM269 1669q61 97 99.5 197.5t43.5 171.5h356q5 -71 44 -171t100 -198 h-168l-154 215l-153 -215h-168z" />
<glyph unicode="&#xcb;" horiz-adv-x="1139" d="M144 0q27 61 44 181t17 245v715q0 119 -17.5 241t-43.5 185h954l-148 -250q-60 27 -180 44.5t-246 17.5h-90v-464h543l-148 -249q-57 25 -174.5 43t-220.5 18v-539h180q292 0 484 94l-84 -282h-870zM252 1829q0 59 42 101t102 42q59 0 101 -42t42 -101q0 -60 -42 -102 t-101 -42q-60 0 -102 42t-42 102zM641 1829q0 59 42 101t102 42q59 0 101 -42t42 -101q0 -60 -42 -102t-101 -42q-60 0 -102 42t-42 102z" />
<glyph unicode="&#xcc;" horiz-adv-x="645" d="M78 2038h326q5 -71 43.5 -171.5t99.5 -197.5h-189q-127 194 -280 369zM146 0q27 61 44 181t17 245v715q0 119 -17.5 241t-43.5 185h351q-27 -61 -44 -181t-17 -245v-715q0 -119 17.5 -241t43.5 -185h-351z" />
<glyph unicode="&#xcd;" horiz-adv-x="645" d="M100 1669q61 98 100 198t44 171h325q-147 -168 -280 -369h-189zM146 0q27 61 44 181t17 245v715q0 119 -17.5 241t-43.5 185h351q-27 -61 -44 -181t-17 -245v-715q0 -119 17.5 -241t43.5 -185h-351z" />
<glyph unicode="&#xce;" horiz-adv-x="645" d="M2 1669q61 97 99.5 197.5t43.5 171.5h356q5 -71 44 -171t100 -198h-168l-154 215l-153 -215h-168zM146 0q27 61 44 181t17 245v715q0 119 -17.5 241t-43.5 185h351q-27 -61 -44 -181t-17 -245v-715q0 -119 17.5 -241t43.5 -185h-351z" />
<glyph unicode="&#xcf;" horiz-adv-x="645" d="M-15 1829q0 59 42 101t102 42q59 0 101 -42t42 -101q0 -60 -42 -102t-101 -42q-60 0 -102 42t-42 102zM146 0q27 61 44 181t17 245v715q0 119 -17.5 241t-43.5 185h351q-27 -61 -44 -181t-17 -245v-715q0 -119 17.5 -241t43.5 -185h-351zM374 1829q0 59 42 101t102 42 q59 0 101 -42t42 -101q0 -60 -42 -102t-101 -42q-60 0 -102 42t-42 102z" />
<glyph unicode="&#xd0;" horiz-adv-x="1554" d="M102 727v188h205v226q0 119 -17.5 241t-43.5 185h407q350 0 567 -203q228 -213 228 -580t-228 -580q-217 -204 -567 -204h-407q27 61 44 181t17 245v301h-205zM536 188h117q257 0 403 158t146 438t-145.5 437.5t-403.5 157.5h-117v-464h283v-188h-283v-539z" />
<glyph unicode="&#xd1;" horiz-adv-x="1669" d="M33 1567h401q9 -51 43.5 -118.5t79.5 -125.5l678 -872v690q0 119 -17.5 241t-43.5 185h351q-27 -61 -44 -181t-17 -245v-715q0 -125 17 -245t44 -181h-290q-14 52 -49.5 120.5t-75.5 119.5l-676 866v-680q0 -119 17.5 -241t43.5 -185h-351q27 61 44 181t17 245v975 q-85 105 -172 166zM507 1700v205q92 55 191 55q65 0 164 -43t141 -43q91 0 174 72v-205q-90 -55 -190 -55q-65 0 -164 43t-141 43q-91 0 -175 -72z" />
<glyph unicode="&#xd2;" horiz-adv-x="1782" d="M96 784q0 369 228 592q107 105 252.5 160t314.5 55t314.5 -55t252.5 -160q228 -223 228 -592t-228 -593q-107 -105 -252.5 -160.5t-314.5 -55.5t-314.5 55.5t-252.5 160.5q-228 224 -228 593zM342 784q0 -285 148.5 -453t400.5 -168t400.5 168t148.5 453t-148.5 452 t-400.5 167t-400.5 -167t-148.5 -452zM625 2038h326q5 -71 43.5 -171.5t99.5 -197.5h-189q-127 194 -280 369z" />
<glyph unicode="&#xd3;" horiz-adv-x="1782" d="M96 784q0 369 228 592q107 105 252.5 160t314.5 55t314.5 -55t252.5 -160q228 -223 228 -592t-228 -593q-107 -105 -252.5 -160.5t-314.5 -55.5t-314.5 55.5t-252.5 160.5q-228 224 -228 593zM342 784q0 -285 148.5 -453t400.5 -168t400.5 168t148.5 453t-148.5 452 t-400.5 167t-400.5 -167t-148.5 -452zM688 1669q61 98 100 198t44 171h325q-147 -168 -280 -369h-189z" />
<glyph unicode="&#xd4;" horiz-adv-x="1782" d="M96 784q0 369 228 592q107 105 252.5 160t314.5 55t314.5 -55t252.5 -160q228 -223 228 -592t-228 -593q-107 -105 -252.5 -160.5t-314.5 -55.5t-314.5 55.5t-252.5 160.5q-228 224 -228 593zM342 784q0 -285 148.5 -453t400.5 -168t400.5 168t148.5 453t-148.5 452 t-400.5 167t-400.5 -167t-148.5 -452zM570 1669q61 97 99.5 197.5t43.5 171.5h356q5 -71 44 -171t100 -198h-168l-154 215l-153 -215h-168z" />
<glyph unicode="&#xd5;" horiz-adv-x="1782" d="M96 784q0 369 228 592q107 105 252.5 160t314.5 55t314.5 -55t252.5 -160q228 -223 228 -592t-228 -593q-107 -105 -252.5 -160.5t-314.5 -55.5t-314.5 55.5t-252.5 160.5q-228 224 -228 593zM342 784q0 -285 148.5 -453t400.5 -168t400.5 168t148.5 453t-148.5 452 t-400.5 167t-400.5 -167t-148.5 -452zM563 1700v205q92 55 191 55q65 0 164 -43t141 -43q91 0 174 72v-205q-90 -55 -190 -55q-65 0 -164 43t-141 43q-91 0 -175 -72z" />
<glyph unicode="&#xd6;" horiz-adv-x="1782" d="M96 784q0 369 228 592q107 105 252.5 160t314.5 55t314.5 -55t252.5 -160q228 -223 228 -592t-228 -593q-107 -105 -252.5 -160.5t-314.5 -55.5t-314.5 55.5t-252.5 160.5q-228 224 -228 593zM342 784q0 -285 148.5 -453t400.5 -168t400.5 168t148.5 453t-148.5 452 t-400.5 167t-400.5 -167t-148.5 -452zM553 1829q0 59 42 101t102 42q59 0 101 -42t42 -101q0 -60 -42 -102t-101 -42q-60 0 -102 42t-42 102zM942 1829q0 59 42 101t102 42q59 0 101 -42t42 -101q0 -60 -42 -102t-101 -42q-60 0 -102 42t-42 102z" />
<glyph unicode="&#xd7;" horiz-adv-x="1933" d="M457 260q104 35 211 137l149 150l-149 150q-107 102 -211 137l223 223q26 -94 137 -211l150 -149l149 149q103 107 137 211l224 -223q-99 -28 -211 -137l-150 -150l150 -150q112 -109 211 -137l-224 -223q-34 104 -137 211l-149 149l-150 -149q-111 -117 -137 -211z" />
<glyph unicode="&#xd8;" horiz-adv-x="1782" d="M82 108l168 168q-154 218 -154 508q0 369 228 592q107 105 252.5 160t314.5 55q288 0 510 -163l164 163l133 -133l-166 -166q154 -218 154 -508q0 -369 -228 -593q-107 -105 -252.5 -160.5t-314.5 -55.5q-284 0 -510 166l-166 -166zM342 784q0 -96 19.5 -187.5 t54.5 -154.5l836 836q-83 66 -169 95.5t-192 29.5q-252 0 -400.5 -166.5t-148.5 -452.5zM530 288q85 -66 171 -95.5t190 -29.5q250 0 399.5 168t149.5 453q0 208 -74 342z" />
<glyph unicode="&#xd9;" horiz-adv-x="1630" d="M144 1567h351q-27 -61 -44 -181t-17 -245v-599q0 -182 101.5 -280.5t287.5 -98.5q152 0 262.5 81t110.5 190v707q0 119 -17.5 241t-43.5 185h351q-27 -61 -44 -181t-17 -245v-716q0 -119 17.5 -240.5t43.5 -184.5h-290v153q-68 -80 -194 -129t-265 -49q-242 0 -387 153.5 t-145 413.5v599q0 119 -17.5 241t-43.5 185zM549 2038h326q5 -71 43.5 -171.5t99.5 -197.5h-189q-127 194 -280 369z" />
<glyph unicode="&#xda;" horiz-adv-x="1630" d="M144 1567h351q-27 -61 -44 -181t-17 -245v-599q0 -182 101.5 -280.5t287.5 -98.5q152 0 262.5 81t110.5 190v707q0 119 -17.5 241t-43.5 185h351q-27 -61 -44 -181t-17 -245v-716q0 -119 17.5 -240.5t43.5 -184.5h-290v153q-68 -80 -194 -129t-265 -49q-242 0 -387 153.5 t-145 413.5v599q0 119 -17.5 241t-43.5 185zM612 1669q61 98 100 198t44 171h325q-147 -168 -280 -369h-189z" />
<glyph unicode="&#xdb;" horiz-adv-x="1630" d="M144 1567h351q-27 -61 -44 -181t-17 -245v-599q0 -182 101.5 -280.5t287.5 -98.5q152 0 262.5 81t110.5 190v707q0 119 -17.5 241t-43.5 185h351q-27 -61 -44 -181t-17 -245v-716q0 -119 17.5 -240.5t43.5 -184.5h-290v153q-68 -80 -194 -129t-265 -49q-242 0 -387 153.5 t-145 413.5v599q0 119 -17.5 241t-43.5 185zM494 1669q61 97 99.5 197.5t43.5 171.5h356q5 -71 44 -171t100 -198h-168l-154 215l-153 -215h-168z" />
<glyph unicode="&#xdc;" horiz-adv-x="1630" d="M144 1567h351q-27 -61 -44 -181t-17 -245v-599q0 -182 101.5 -280.5t287.5 -98.5q152 0 262.5 81t110.5 190v707q0 119 -17.5 241t-43.5 185h351q-27 -61 -44 -181t-17 -245v-716q0 -119 17.5 -240.5t43.5 -184.5h-290v153q-68 -80 -194 -129t-265 -49q-242 0 -387 153.5 t-145 413.5v599q0 119 -17.5 241t-43.5 185zM477 1829q0 59 42 101t102 42q59 0 101 -42t42 -101q0 -60 -42 -102t-101 -42q-60 0 -102 42t-42 102zM866 1829q0 59 42 101t102 42q59 0 101 -42t42 -101q0 -60 -42 -102t-101 -42q-60 0 -102 42t-42 102z" />
<glyph unicode="&#xdd;" horiz-adv-x="1327" d="M6 1567h367q0 -45 20.5 -108.5t53.5 -122.5l217 -381l216 381q33 59 53.5 122.5t20.5 108.5h367q-95 -81 -228 -311l-315 -547v-283q0 -119 17.5 -241t43.5 -185h-351q27 61 44 181t17 245v283l-315 547q-133 230 -228 311zM460 1669q61 98 100 198t44 171h325 q-147 -168 -280 -369h-189z" />
<glyph unicode="&#xde;" horiz-adv-x="1063" d="M144 0q27 61 44 181t17 244v716q0 119 -17.5 241.5t-43.5 184.5h351q-45 -112 -57 -312h57q246 0 376 -121t130 -349q0 -229 -130 -350.5t-376 -121.5h-57q12 -212 57 -313h-351zM434 501h61q145 0 211 68t66 216q0 147 -66 214.5t-211 67.5h-61v-566z" />
<glyph unicode="&#xdf;" horiz-adv-x="1214" d="M82 0q57 114 57 324v880q0 177 112.5 282t305.5 105q195 0 310.5 -106t115.5 -281q0 -107 -20 -231q-89 0 -139 -31.5t-50 -87.5q0 -46 59 -107q5 -5 131 -116q102 -91 145.5 -166t43.5 -156q0 -165 -96 -249.5t-283 -84.5q-144 0 -285 50v252q59 -63 137.5 -100.5 t147.5 -37.5q74 0 116 39.5t42 110.5q0 58 -37.5 114t-151.5 156q-112 98 -151 158t-39 123q0 78 53 141t150 101q6 48 6 122q0 97 -57 160t-148 63t-148 -63t-57 -160v-880q0 -207 57 -324h-327z" />
<glyph unicode="&#xe0;" horiz-adv-x="948" d="M82 242q0 94 30 152.5t107 118.5q93 71 200.5 127.5t176.5 72.5v55q0 88 -54 136t-153 48q-150 0 -272 -78l67 214q116 28 254 28q177 0 274 -96t97 -270v-426q0 -210 57 -324h-270v111l-129 -123q-65 -13 -143 -13q-104 0 -173 74.5t-69 192.5zM229 1608h326 q5 -71 43.5 -171.5t99.5 -197.5h-189q-127 194 -280 369zM295 324q0 -101 28.5 -147t92.5 -46q85 0 132.5 15t47.5 42v337h-125q-100 0 -138 -41.5t-38 -159.5z" />
<glyph unicode="&#xe1;" horiz-adv-x="948" d="M82 242q0 94 30 152.5t107 118.5q93 71 200.5 127.5t176.5 72.5v55q0 88 -54 136t-153 48q-150 0 -272 -78l67 214q116 28 254 28q177 0 274 -96t97 -270v-426q0 -210 57 -324h-270v111l-129 -123q-65 -13 -143 -13q-104 0 -173 74.5t-69 192.5zM272 1239q61 98 100 198 t44 171h325q-147 -168 -280 -369h-189zM295 324q0 -101 28.5 -147t92.5 -46q85 0 132.5 15t47.5 42v337h-125q-100 0 -138 -41.5t-38 -159.5z" />
<glyph unicode="&#xe2;" horiz-adv-x="948" d="M82 242q0 94 30 152.5t107 118.5q93 71 200.5 127.5t176.5 72.5v55q0 88 -54 136t-153 48q-150 0 -272 -78l67 214q116 28 254 28q177 0 274 -96t97 -270v-426q0 -210 57 -324h-270v111l-129 -123q-65 -13 -143 -13q-104 0 -173 74.5t-69 192.5zM154 1239 q61 97 99.5 197.5t43.5 171.5h356q5 -71 44 -171t100 -198h-168l-154 215l-153 -215h-168zM295 324q0 -101 28.5 -147t92.5 -46q85 0 132.5 15t47.5 42v337h-125q-100 0 -138 -41.5t-38 -159.5z" />
<glyph unicode="&#xe3;" horiz-adv-x="948" d="M82 242q0 94 30 152.5t107 118.5q93 71 200.5 127.5t176.5 72.5v55q0 88 -54 136t-153 48q-150 0 -272 -78l67 214q116 28 254 28q177 0 274 -96t97 -270v-426q0 -210 57 -324h-270v111l-129 -123q-65 -13 -143 -13q-104 0 -173 74.5t-69 192.5zM147 1270v204 q90 56 191 56q65 0 164 -43q99 -44 141 -44q92 0 174 73v-205q-89 -56 -190 -56q-65 0 -164 44q-99 43 -141 43q-91 0 -175 -72zM295 324q0 -101 28.5 -147t92.5 -46q85 0 132.5 15t47.5 42v337h-125q-100 0 -138 -41.5t-38 -159.5z" />
<glyph unicode="&#xe4;" horiz-adv-x="948" d="M82 242q0 94 30 152.5t107 118.5q93 71 200.5 127.5t176.5 72.5v55q0 88 -54 136t-153 48q-150 0 -272 -78l67 214q116 28 254 28q177 0 274 -96t97 -270v-426q0 -210 57 -324h-270v111l-129 -123q-65 -13 -143 -13q-104 0 -173 74.5t-69 192.5zM137 1399q0 59 42 101 t102 42q59 0 101 -42t42 -101q0 -60 -42 -102t-101 -42q-60 0 -102 42t-42 102zM295 324q0 -101 28.5 -147t92.5 -46q85 0 132.5 15t47.5 42v337h-125q-100 0 -138 -41.5t-38 -159.5zM526 1399q0 59 42 101t102 42q59 0 101 -42t42 -101q0 -60 -42 -102t-101 -42 q-60 0 -102 42t-42 102z" />
<glyph unicode="&#xe5;" horiz-adv-x="948" d="M82 242q0 94 30 152.5t107 118.5q93 71 200.5 127.5t176.5 72.5v55q0 88 -54 136t-153 48q-150 0 -272 -78l67 214q116 28 254 28q177 0 274 -96t97 -270v-426q0 -210 57 -324h-270v111l-129 -123q-65 -13 -143 -13q-104 0 -173 74.5t-69 192.5zM270 1419q0 85 60 145 t145 60t145 -60t60 -145t-60 -145t-145 -60t-145 60t-60 145zM295 324q0 -101 28.5 -147t92.5 -46q85 0 132.5 15t47.5 42v337h-125q-100 0 -138 -41.5t-38 -159.5zM372 1419q0 -43 30 -73t73 -30q44 0 73.5 30t29.5 73q0 44 -29.5 73.5t-73.5 29.5q-43 0 -73 -29.5 t-30 -73.5z" />
<glyph unicode="&#xe6;" horiz-adv-x="1518" d="M82 241q0 94 30 152.5t107 118.5q93 72 200.5 128.5t176.5 72.5v55q0 88 -54 136t-153 48q-150 0 -272 -78l67 214q116 28 254 28q232 0 328 -168q90 91 168 129.5t174 38.5q168 0 262 -122.5t94 -341.5q0 -84 -2 -119h-645q8 -181 91 -276.5t233 -95.5q156 0 272 92 l-70 -249q-151 -29 -256 -29q-136 0 -241.5 54.5t-169.5 156.5l-209 -198q-65 -13 -143 -13q-104 0 -173 74.5t-69 191.5zM295 323q0 -101 28.5 -146.5t92.5 -45.5q180 0 180 110v284h-125q-100 0 -138 -41.5t-38 -160.5zM821 668h418q0 148 -41 216t-131 68 q-212 0 -246 -284z" />
<glyph unicode="&#xe7;" horiz-adv-x="948" d="M74 487q0 142 36 242.5t120 193.5q90 102 181.5 147.5t205.5 45.5q141 0 227 -26l-60 -216q-39 36 -97 57t-118 21q-132 0 -203 -106.5t-71 -299.5q0 -184 88.5 -284.5t251.5 -100.5q139 0 258 90l-86 -247q-105 -29 -260 -29q-205 0 -339 146t-134 366zM340 -344l14 133 q55 -45 127 -45q42 0 67 20t25 54q0 31 -23 50t-61 19q-37 0 -72 -10l31 123q125 0 196.5 -52t71.5 -141q0 -82 -61 -129t-168 -47q-72 0 -147 25z" />
<glyph unicode="&#xe8;" horiz-adv-x="985" d="M63 488q0 294 176 466q91 90 166.5 126t170.5 36q168 0 262 -122.5t94 -341.5q0 -84 -2 -119h-646q8 -181 91 -276.5t233 -95.5q157 0 273 92l-70 -249q-151 -29 -256 -29q-222 0 -357 139.5t-135 373.5zM248 1608h326q5 -71 43.5 -171.5t99.5 -197.5h-189 q-127 194 -280 369zM288 668h419q0 148 -41 216t-131 68q-213 0 -247 -284z" />
<glyph unicode="&#xe9;" horiz-adv-x="985" d="M63 488q0 294 176 466q91 90 166.5 126t170.5 36q168 0 262 -122.5t94 -341.5q0 -84 -2 -119h-646q8 -181 91 -276.5t233 -95.5q157 0 273 92l-70 -249q-151 -29 -256 -29q-222 0 -357 139.5t-135 373.5zM288 668h419q0 148 -41 216t-131 68q-213 0 -247 -284zM290 1239 q61 98 100 198t44 171h325q-147 -168 -280 -369h-189z" />
<glyph unicode="&#xea;" horiz-adv-x="985" d="M63 488q0 294 176 466q91 90 166.5 126t170.5 36q168 0 262 -122.5t94 -341.5q0 -84 -2 -119h-646q8 -181 91 -276.5t233 -95.5q157 0 273 92l-70 -249q-151 -29 -256 -29q-222 0 -357 139.5t-135 373.5zM172 1239q61 97 99.5 197.5t43.5 171.5h356q5 -71 44 -171 t100 -198h-168l-154 215l-153 -215h-168zM288 668h419q0 148 -41 216t-131 68q-213 0 -247 -284z" />
<glyph unicode="&#xeb;" horiz-adv-x="985" d="M63 488q0 294 176 466q91 90 166.5 126t170.5 36q168 0 262 -122.5t94 -341.5q0 -84 -2 -119h-646q8 -181 91 -276.5t233 -95.5q157 0 273 92l-70 -249q-151 -29 -256 -29q-222 0 -357 139.5t-135 373.5zM155 1399q0 59 42 101t102 42q59 0 101 -42t42 -101 q0 -60 -42 -102t-101 -42q-60 0 -102 42t-42 102zM288 668h419q0 148 -41 216t-131 68q-213 0 -247 -284zM544 1399q0 59 42 101t102 42q59 0 101 -42t42 -101q0 -60 -42 -102t-101 -42q-60 0 -102 42t-42 102z" />
<glyph unicode="&#xec;" horiz-adv-x="494" d="M-18 1608h326q5 -71 43.5 -171.5t99.5 -197.5h-189q-127 194 -280 369zM82 0q57 114 57 324v445q0 209 -57 323h327q-57 -114 -57 -323v-445q0 -210 57 -324h-327z" />
<glyph unicode="&#xed;" horiz-adv-x="494" d="M45 1239q61 98 100 198t44 171h325q-147 -168 -280 -369h-189zM82 0q57 114 57 324v445q0 209 -57 323h327q-57 -114 -57 -323v-445q0 -210 57 -324h-327z" />
<glyph unicode="&#xee;" horiz-adv-x="494" d="M-73 1239q61 97 99.5 197.5t43.5 171.5h356q5 -71 44 -171t100 -198h-168l-154 215l-153 -215h-168zM82 0q57 114 57 324v445q0 209 -57 323h327q-57 -114 -57 -323v-445q0 -210 57 -324h-327z" />
<glyph unicode="&#xef;" horiz-adv-x="494" d="M-90 1399q0 59 42 101t102 42q59 0 101 -42t42 -101q0 -60 -42 -102t-101 -42q-60 0 -102 42t-42 102zM82 0q57 114 57 324v445q0 209 -57 323h327q-57 -114 -57 -323v-445q0 -210 57 -324h-327zM299 1399q0 59 42 101t102 42q59 0 101 -42t42 -101q0 -60 -42 -102 t-101 -42q-60 0 -102 42t-42 102z" />
<glyph unicode="&#xf0;" horiz-adv-x="1139" d="M63 461q0 128 42 229t134 195q91 91 181.5 130.5t208.5 39.5l-124 180l-249 -115v150l172 80l-27 39q-86 124 -178 202h344q0 -59 57 -149l244 113v-150l-168 -78l269 -395q106 -156 106 -363q0 -128 -42 -229.5t-134 -194.5q-90 -90 -180 -130t-205 -40 q-193 0 -322 139.5t-129 346.5zM284 516q0 -174 86 -275.5t236 -101.5q114 0 181 103t67 274q0 174 -86 274.5t-236 100.5q-114 0 -181 -102t-67 -273z" />
<glyph unicode="&#xf1;" horiz-adv-x="1100" d="M82 0q57 114 57 324v444q0 210 -57 324h270v-172l135 172q86 24 164 24q151 0 233.5 -95t82.5 -269v-428q0 -210 57 -324h-327q57 117 57 324v428q0 80 -46.5 128t-127.5 48t-154.5 -40.5t-73.5 -82.5v-481q0 -207 57 -324h-327zM223 1270v204q90 56 191 56q65 0 164 -43 q99 -44 141 -44q92 0 174 73v-205q-89 -56 -190 -56q-65 0 -164 44q-99 43 -141 43q-91 0 -175 -72z" />
<glyph unicode="&#xf2;" horiz-adv-x="1139" d="M63 489q0 135 42 242t134 205q90 96 180 138t205 42q193 0 322 -147t129 -365q0 -136 -42.5 -244t-133.5 -205q-90 -96 -180 -138t-205 -42q-193 0 -322 147.5t-129 366.5zM284 547q0 -187 86.5 -297.5t235.5 -110.5q113 0 180.5 112t67.5 296q0 186 -86.5 295.5 t-235.5 109.5q-113 0 -180.5 -111t-67.5 -294zM303 1608h326q5 -71 43.5 -171.5t99.5 -197.5h-189q-127 194 -280 369z" />
<glyph unicode="&#xf3;" horiz-adv-x="1139" d="M63 489q0 135 42 242t134 205q90 96 180 138t205 42q193 0 322 -147t129 -365q0 -136 -42.5 -244t-133.5 -205q-90 -96 -180 -138t-205 -42q-193 0 -322 147.5t-129 366.5zM284 547q0 -187 86.5 -297.5t235.5 -110.5q113 0 180.5 112t67.5 296q0 186 -86.5 295.5 t-235.5 109.5q-113 0 -180.5 -111t-67.5 -294zM366 1239q61 98 100 198t44 171h325q-147 -168 -280 -369h-189z" />
<glyph unicode="&#xf4;" horiz-adv-x="1139" d="M63 489q0 135 42 242t134 205q90 96 180 138t205 42q193 0 322 -147t129 -365q0 -136 -42.5 -244t-133.5 -205q-90 -96 -180 -138t-205 -42q-193 0 -322 147.5t-129 366.5zM248 1239q61 97 99.5 197.5t43.5 171.5h356q5 -71 44 -171t100 -198h-168l-154 215l-153 -215 h-168zM284 547q0 -187 86.5 -297.5t235.5 -110.5q113 0 180.5 112t67.5 296q0 186 -86.5 295.5t-235.5 109.5q-113 0 -180.5 -111t-67.5 -294z" />
<glyph unicode="&#xf5;" horiz-adv-x="1139" d="M63 489q0 135 42 242t134 205q90 96 180 138t205 42q193 0 322 -147t129 -365q0 -136 -42.5 -244t-133.5 -205q-90 -96 -180 -138t-205 -42q-193 0 -322 147.5t-129 366.5zM241 1270v204q90 56 191 56q65 0 164 -43q99 -44 141 -44q92 0 174 73v-205q-89 -56 -190 -56 q-65 0 -164 44q-99 43 -141 43q-91 0 -175 -72zM284 547q0 -187 86.5 -297.5t235.5 -110.5q113 0 180.5 112t67.5 296q0 186 -86.5 295.5t-235.5 109.5q-113 0 -180.5 -111t-67.5 -294z" />
<glyph unicode="&#xf6;" horiz-adv-x="1139" d="M63 489q0 135 42 242t134 205q90 96 180 138t205 42q193 0 322 -147t129 -365q0 -136 -42.5 -244t-133.5 -205q-90 -96 -180 -138t-205 -42q-193 0 -322 147.5t-129 366.5zM231 1399q0 59 42 101t102 42q59 0 101 -42t42 -101q0 -60 -42 -102t-101 -42q-60 0 -102 42 t-42 102zM284 547q0 -187 86.5 -297.5t235.5 -110.5q113 0 180.5 112t67.5 296q0 186 -86.5 295.5t-235.5 109.5q-113 0 -180.5 -111t-67.5 -294zM620 1399q0 59 42 101t102 42q59 0 101 -42t42 -101q0 -60 -42 -102t-101 -42q-60 0 -102 42t-42 102z" />
<glyph unicode="&#xf7;" horiz-adv-x="1933" d="M420 389v315q105 -51 246 -51h599q141 0 246 51v-315q-90 51 -246 51h-599q-158 0 -246 -51zM813 129q0 63 45.5 108t108.5 45t108 -45t45 -108t-45.5 -108.5t-107.5 -45.5q-63 0 -108.5 45.5t-45.5 108.5zM813 963q0 63 45.5 108t108.5 45t108 -45t45 -108t-45.5 -108.5 t-107.5 -45.5q-63 0 -108.5 45.5t-45.5 108.5z" />
<glyph unicode="&#xf8;" horiz-adv-x="1139" d="M63 489q0 135 42 242.5t134 204.5q91 96 180 138t205 42q142 0 250 -80l68 80l127 -104l-82 -99q88 -133 88 -309q0 -136 -42.5 -244t-133.5 -205q-90 -96 -180 -138t-205 -42q-137 0 -248 80l-68 -80l-127 107l80 96q-88 129 -88 311zM284 547q0 -115 27 -183l428 510 q-75 78 -207 78q-113 0 -180.5 -111t-67.5 -294zM401 217q78 -78 205 -78q113 0 180.5 112t67.5 296q0 110 -27 178z" />
<glyph unicode="&#xf9;" horiz-adv-x="1100" d="M74 1092h327q-57 -114 -57 -324v-428q0 -81 46.5 -129t127.5 -48t154 40.5t73 82.5v482q0 210 -57 324h327q-57 -114 -57 -324v-445q0 -211 57 -323h-270v171l-135 -171q-82 -25 -164 -25q-151 0 -233 95t-82 270v428q0 210 -57 324zM285 1608h326q5 -71 43.5 -171.5 t99.5 -197.5h-189q-127 194 -280 369z" />
<glyph unicode="&#xfa;" horiz-adv-x="1100" d="M74 1092h327q-57 -114 -57 -324v-428q0 -81 46.5 -129t127.5 -48t154 40.5t73 82.5v482q0 210 -57 324h327q-57 -114 -57 -324v-445q0 -211 57 -323h-270v171l-135 -171q-82 -25 -164 -25q-151 0 -233 95t-82 270v428q0 210 -57 324zM348 1239q61 98 100 198t44 171h325 q-147 -168 -280 -369h-189z" />
<glyph unicode="&#xfb;" horiz-adv-x="1100" d="M74 1092h327q-57 -114 -57 -324v-428q0 -81 46.5 -129t127.5 -48t154 40.5t73 82.5v482q0 210 -57 324h327q-57 -114 -57 -324v-445q0 -211 57 -323h-270v171l-135 -171q-82 -25 -164 -25q-151 0 -233 95t-82 270v428q0 210 -57 324zM230 1239q61 97 99.5 197.5 t43.5 171.5h356q5 -71 44 -171t100 -198h-168l-154 215l-153 -215h-168z" />
<glyph unicode="&#xfc;" horiz-adv-x="1100" d="M74 1092h327q-57 -114 -57 -324v-428q0 -81 46.5 -129t127.5 -48t154 40.5t73 82.5v482q0 210 -57 324h327q-57 -114 -57 -324v-445q0 -211 57 -323h-270v171l-135 -171q-82 -25 -164 -25q-151 0 -233 95t-82 270v428q0 210 -57 324zM213 1399q0 59 42 101t102 42 q59 0 101 -42t42 -101q0 -60 -42 -102t-101 -42q-60 0 -102 42t-42 102zM602 1399q0 59 42 101t102 42q59 0 101 -42t42 -101q0 -60 -42 -102t-101 -42q-60 0 -102 42t-42 102z" />
<glyph unicode="&#xfd;" horiz-adv-x="1024" d="M16 1092h310q-26 -75 14 -184l195 -545l172 539q34 103 4 190h297q-41 -61 -84 -186l-322 -947q-55 -162 -173.5 -238.5t-334.5 -89.5v25q113 41 181.5 113t111.5 196l41 117l-315 826q-48 124 -97 184zM309 1239q61 98 100 198t44 171h325q-147 -168 -280 -369h-189z " />
<glyph unicode="&#xfe;" horiz-adv-x="1139" d="M82 -344q57 114 57 323v1289q0 71 -16 145t-41 123l327 55q-57 -112 -57 -323v-338l137 170q69 16 156 16q179 0 304.5 -149.5t125.5 -362.5q0 -262 -178 -449q-91 -94 -182 -137t-201 -43q-81 0 -162 25v-21q0 -209 57 -323h-327zM352 239q93 -100 236 -100 q128 0 197 106t69 300q0 193 -94 297q-78 86 -189 86q-70 0 -144.5 -33t-74.5 -65v-591z" />
<glyph unicode="&#xff;" horiz-adv-x="1024" d="M16 1092h310q-26 -75 14 -184l195 -545l172 539q34 103 4 190h297q-41 -61 -84 -186l-322 -947q-55 -162 -173.5 -238.5t-334.5 -89.5v25q113 41 181.5 113t111.5 196l41 117l-315 826q-48 124 -97 184zM174 1399q0 59 42 101t102 42q59 0 101 -42t42 -101 q0 -60 -42 -102t-101 -42q-60 0 -102 42t-42 102zM563 1399q0 59 42 101t102 42q59 0 101 -42t42 -101q0 -60 -42 -102t-101 -42q-60 0 -102 42t-42 102z" />
<glyph unicode="&#x152;" horiz-adv-x="2048" d="M96 784q0 370 228 592q107 105 252.5 160t314.5 55q116 0 215 -24h901l-148 -250q-60 27 -180 44.5t-246 17.5h-90v-464h543l-148 -249q-57 25 -174.5 43t-220.5 18v-539h180q292 0 484 94l-84 -282h-819q-97 -25 -213 -25q-169 0 -314.5 55.5t-252.5 160.5 q-228 224 -228 593zM342 784q0 -285 148.5 -453t400.5 -168q107 0 165 58t58 166v793q0 108 -57.5 165.5t-165.5 57.5q-252 0 -400.5 -167t-148.5 -452z" />
<glyph unicode="&#x153;" horiz-adv-x="1745" d="M63 490q0 135 42 241.5t134 204.5q90 96 180 138t206 42q110 0 203.5 -56.5t146.5 -152.5q159 209 361 209q168 0 262 -122.5t94 -341.5q0 -84 -2 -119h-633q8 -179 89 -275.5t223 -96.5q156 0 272 92l-70 -249q-151 -29 -256 -29q-279 0 -399 215q-167 -215 -402 -215 q-193 0 -322 148t-129 367zM284 547q0 -187 86.5 -297.5t235.5 -110.5q110 0 171 108.5t61 299.5q0 192 -80 298.5t-226 106.5q-113 0 -180.5 -111t-67.5 -294zM1061 668h406q0 148 -41 216t-131 68q-200 0 -234 -284z" />
<glyph unicode="&#x178;" horiz-adv-x="1327" d="M6 1567h367q0 -45 20.5 -108.5t53.5 -122.5l217 -381l216 381q33 59 53.5 122.5t20.5 108.5h367q-95 -81 -228 -311l-315 -547v-283q0 -119 17.5 -241t43.5 -185h-351q27 61 44 181t17 245v283l-315 547q-133 230 -228 311zM325 1870q0 59 42 101t102 42q59 0 101 -42 t42 -101q0 -60 -42 -102t-101 -42q-60 0 -102 42t-42 102zM714 1870q0 59 42 101t102 42q59 0 101 -42t42 -101q0 -60 -42 -102t-101 -42q-60 0 -102 42t-42 102z" />
<glyph unicode="&#x2c6;" d="M324 1239q61 97 99.5 197.5t43.5 171.5h356q5 -71 44 -171t100 -198h-168l-154 215l-153 -215h-168z" />
<glyph unicode="&#x2dc;" d="M317 1270v204q90 56 191 56q65 0 164 -43q99 -44 141 -44q92 0 174 73v-205q-89 -56 -190 -56q-65 0 -164 44q-99 43 -141 43q-91 0 -175 -72z" />
<glyph unicode="&#x2000;" horiz-adv-x="1027" />
<glyph unicode="&#x2001;" horiz-adv-x="2054" />
<glyph unicode="&#x2002;" horiz-adv-x="1027" />
<glyph unicode="&#x2003;" horiz-adv-x="2054" />
<glyph unicode="&#x2004;" horiz-adv-x="684" />
<glyph unicode="&#x2005;" horiz-adv-x="513" />
<glyph unicode="&#x2006;" horiz-adv-x="342" />
<glyph unicode="&#x2007;" horiz-adv-x="342" />
<glyph unicode="&#x2008;" horiz-adv-x="256" />
<glyph unicode="&#x2009;" horiz-adv-x="410" />
<glyph unicode="&#x200a;" horiz-adv-x="114" />
<glyph unicode="&#x2010;" horiz-adv-x="645" d="M51 389v315q105 -51 246 -51h51q141 0 246 51v-315q-90 51 -246 51h-51q-156 0 -246 -51z" />
<glyph unicode="&#x2011;" horiz-adv-x="645" d="M51 389v315q105 -51 246 -51h51q141 0 246 51v-315q-90 51 -246 51h-51q-156 0 -246 -51z" />
<glyph unicode="&#x2012;" horiz-adv-x="645" d="M51 389v315q105 -51 246 -51h51q141 0 246 51v-315q-90 51 -246 51h-51q-156 0 -246 -51z" />
<glyph unicode="&#x2013;" d="M51 389v315q105 -51 246 -51h696q141 0 246 51v-315q-90 51 -246 51h-696q-156 0 -246 -51z" />
<glyph unicode="&#x2014;" horiz-adv-x="1933" d="M51 389v315q105 -51 246 -51h1339q141 0 246 51v-315q-90 51 -246 51h-1339q-156 0 -246 -51z" />
<glyph unicode="&#x2018;" horiz-adv-x="645" d="M150 920q14 40 35 129q24 99 40 151q62 199 191 367h143q-135 -271 -135 -467q0 -101 33 -180h-307z" />
<glyph unicode="&#x2019;" horiz-adv-x="645" d="M86 920q135 270 135 467q0 101 -33 180h307q-14 -40 -35 -129q-24 -100 -40 -152q-62 -199 -191 -366h-143z" />
<glyph unicode="&#x201a;" horiz-adv-x="645" d="M86 -344q135 270 135 467q0 101 -33 180h307q-14 -40 -35 -129q-24 -100 -40 -152q-62 -199 -191 -366h-143z" />
<glyph unicode="&#x201c;" horiz-adv-x="1100" d="M150 920q14 40 35 129q24 99 40 151q62 199 191 367h144q-136 -271 -136 -467q0 -101 33 -180h-307zM605 920q14 40 35 129q24 99 40 151q62 199 191 367h143q-135 -271 -135 -467q0 -101 33 -180h-307z" />
<glyph unicode="&#x201d;" horiz-adv-x="1100" d="M86 920q135 270 135 467q0 101 -33 180h307q-14 -40 -35 -129q-24 -100 -40 -152q-62 -199 -191 -366h-143zM540 920q136 269 136 467q0 101 -33 180h307q-14 -40 -35 -129q-24 -100 -40 -152q-62 -199 -191 -366h-144z" />
<glyph unicode="&#x201e;" horiz-adv-x="1100" d="M86 -344q135 270 135 467q0 101 -33 180h307q-14 -40 -35 -129q-24 -100 -40 -152q-62 -199 -191 -366h-143zM540 -344q136 269 136 467q0 101 -33 180h307q-14 -40 -35 -129q-24 -100 -40 -152q-62 -199 -191 -366h-144z" />
<glyph unicode="&#x2022;" horiz-adv-x="1024" d="M143 697q0 152 108.5 260t260.5 108t260 -108t108 -260t-108 -260.5t-260 -108.5t-260.5 108.5t-108.5 260.5z" />
<glyph unicode="&#x2026;" horiz-adv-x="1933" d="M158 139q0 68 48.5 116t115.5 48q68 0 116 -48t48 -116q0 -67 -48 -115.5t-116 -48.5q-67 0 -115.5 48.5t-48.5 115.5zM803 139q0 68 48.5 116t115.5 48q68 0 116 -48t48 -116q0 -67 -48 -115.5t-116 -48.5q-67 0 -115.5 48.5t-48.5 115.5zM1448 139q0 68 48.5 116 t115.5 48q68 0 116 -48t48 -116q0 -67 -48 -115.5t-116 -48.5q-67 0 -115.5 48.5t-48.5 115.5z" />
<glyph unicode="&#x202f;" horiz-adv-x="410" />
<glyph unicode="&#x2039;" horiz-adv-x="530" d="M20 547l144 307q45 99 45 156h317q-36 -26 -78 -78.5t-67 -105.5l-129 -279l129 -279q25 -53 67 -105.5t78 -78.5h-317q0 57 -45 156z" />
<glyph unicode="&#x203a;" horiz-adv-x="530" d="M2 84q37 26 79 79t66 105l129 279l-129 279q-24 52 -66 105t-79 79h317q0 -54 46 -156l143 -307l-143 -307q-46 -102 -46 -156h-317z" />
<glyph unicode="&#x205f;" horiz-adv-x="513" />
<glyph unicode="&#x20ac;" d="M76 586l25 135h137q-2 18 -2 64q0 39 2 59h-162l23 135h151q37 286 203.5 449t419.5 163q141 0 276 -51v-283q-91 146 -276 146q-333 0 -396 -424h574l-23 -135h-561q-2 -16 -2 -59q0 -39 2 -64h539l-23 -135h-506q61 -423 396 -423q100 0 183 41.5t128 116.5v-282 q-170 -64 -311 -64q-253 0 -415.5 159t-207.5 452h-174z" />
<glyph unicode="&#x2122;" horiz-adv-x="1251" d="M0 1468l35 99h463l-35 -99q-55 25 -170 25v-381q0 -117 25 -172h-142q25 55 25 172v381h-51q-33 0 -80.5 -8t-69.5 -17zM518 1567h160q9 -44 49 -103l158 -225l158 225q41 60 47 103h162q-35 -23 -70 -66v-389q0 -117 25 -172h-142q25 55 25 172v260l-205 -284l-207 284 v-260q0 -109 25 -172h-140q25 55 25 172v389q-35 43 -70 66z" />
<glyph unicode="&#x25fc;" horiz-adv-x="1090" d="M0 0v1090h1090v-1090h-1090z" />
</font>
</defs>
</svg>
