<?xml version="1.0" standalone="no"?> <!DOCTYPE svg PUBLIC "-//W3C//DTD SVG 1.0//EN" "http://www.w3.org/TR/2001/REC-SVG-20010904/DTD/svg10.dtd" > <svg xmlns="http://www.w3.org/2000/svg" width="100%" height="100%">
<defs >
<font id="ge_ss_unique_bold" horiz-adv-x="1231" ><font-face
    font-family="GE SS Unique Bold"
    units-per-em="2048"
    panose-1="2 10 5 3 2 1 2 2 2 4"
    ascent="1691"
    descent="-491"
    alphabetic="0" />
<missing-glyph horiz-adv-x="1024" d="M129 0H897V1536H129V0ZM256 129V1409H768V129H256Z" />
<glyph unicode=" " glyph-name="space" horiz-adv-x="557" />
<glyph unicode="!" glyph-name="exclam" horiz-adv-x="673" d="M481 1329L457 362H268L236 1329H481ZM481 0H248V244H481V0Z" />
<glyph unicode="&quot;" glyph-name="quotedbl" horiz-adv-x="774" d="M90 1327H348V848H90V1327ZM424 1327H682V848H424V1327Z" />
<glyph unicode="$" glyph-name="dollar" horiz-adv-x="1021" d="M561 494V184Q617 189 653 225T690 334Q690 405 658 439T561 494ZM561 1354V1272Q647 1264 716 1240T838 1172T920 1061T948 905H682Q675 1079 561 1087V748Q632 731 684 715T795 668T890 601T951
505T975 375Q975 264 914 176T758 43T561 0V-82H459V0Q262 -3 152 101T45 395H311Q306 313 346 250T459 184V516Q409 530 382 538T312 561T248 586T194 616T145 653T109 698T80 754T64 822T57 905Q57 980 92 1048T185 1163T314 1239T459 1272V1354H561ZM459 776V1087Q405
1087 374 1038T342 920Q342 857 371 827T459 776Z" />
<glyph unicode="&apos;" glyph-name="quotesingle" horiz-adv-x="436" d="M90 1327H348V848H90V1327Z" />
<glyph unicode="(" glyph-name="parenleft" horiz-adv-x="440" d="M252 1327H440Q303 906 303 541Q303 268 438 -176H252Q171 35 127 209T82 557Q82 749 124 918T252 1327Z" />
<glyph unicode=")" glyph-name="parenright" horiz-adv-x="796" d="M481 -176H295Q432 242 432 610Q432 864 297 1327H481Q563 1119 608 944T653 594Q653 400 610 227T481 -176Z" />
<glyph unicode="*" glyph-name="at" horiz-adv-x="1021" d="M408 436L131 399V594L410 553L238 772L408 866L510 612L618 872L791 770L610 553L891 588L887 393L614 434L786 209L614 115L508 375L401 113L238 213L408 436Z" />
<glyph unicode="+" glyph-name="plus" horiz-adv-x="1073" d="M426 889H647V555H981V334H647V0H426V334H92V555H426V889Z" />
<glyph unicode="-" glyph-name="hyphen" horiz-adv-x="612" d="M535 383H80V588H535V383Z" />
<glyph unicode="." glyph-name="period" horiz-adv-x="462" d="M371 0H137V244H371V0Z" />
<glyph unicode="/" glyph-name="slash" horiz-adv-x="815" d="M739 1327L293 -176H78L526 1327H739Z" />
<glyph unicode="0" glyph-name="zero" horiz-adv-x="526" d="M389 670L104 537V205L389 342V670Z" />
<glyph unicode="1" glyph-name="one" horiz-adv-x="507" d="M356 1292V262L80 0V1292H356Z" />
<glyph unicode="2" glyph-name="two" horiz-adv-x="1075" d="M375 0L373 928Q373 997 416 1040T528 1083Q604 1083 646 1034T688 909H971Q974 1004 940 1079T845 1199T705 1268T535 1292Q449 1292 372 1270T233 1204T135 1089T98 926V0H375Z" />
<glyph unicode="3" glyph-name="three" horiz-adv-x="1419" d="M881 1292L872 930Q895 909 971 909Q1003 909 1031 934T1059 1014V1292H1329V1008Q1329 933 1307 873T1250 774T1168 711T1077 675T987 666Q869 666 776 715Q729 665 659 646T523 634T401 666V0H125V1292H401V1036Q401
970 431 934T510 897Q554 897 582 919T610 987V1292H881Z" />
<glyph unicode="4" glyph-name="four" horiz-adv-x="1099" d="M891 98L784 334Q781 331 774 327T745 313T696 294T629 279T545 272Q509 272 470 286T397 334T356 410Q343 494 409 539T604 584H713V821H602Q517 821 467 852T416 946Q416 989 451 1021T537 1059Q620
1063 711 1012L811 1233Q740 1261 678 1275T589 1290T510 1292Q432 1292 366 1272T247 1210T164 1099T133 938Q133 871 162 815T240 721Q171 678 126 593T80 408Q80 280 144 186T312 46T545 0Q744 0 891 98Z" />
<glyph unicode="5" glyph-name="five" horiz-adv-x="1239" d="M580 330Q496 335 437 397T377 573Q381 680 448 761T580 858Q643 842 709 761T780 573Q780 459 721 397T580 330ZM558 66T580 66T630 69T706 85T799 119T892 181T976 275T1034 412T1057 596Q1054 696
1004 793T882 957T729 1065T580 1106T431 1065T277 957T154 793T100 596Q100 495 122 412T180 276T264 181T358 119T451 85T529 69Z" />
<glyph unicode="6" glyph-name="six" horiz-adv-x="1081" d="M444 1057H168L39 1292H430Q546 1292 638 1252T789 1126T848 918V0H571V930Q571 985 540 1021T444 1057Z" />
<glyph unicode="7" glyph-name="seven" horiz-adv-x="1130" d="M47 1292H342L561 555L770 1292H1067L686 0H444L47 1292Z" />
<glyph unicode="8" glyph-name="eight" horiz-adv-x="1241" d="M82 0H379L598 739L807 0H1102L723 1292H479L82 0Z" />
<glyph unicode="9" glyph-name="nine" horiz-adv-x="1118" d="M631 561V0H907V1292H633Q500 1292 396 1269T211 1194T89 1057T47 852Q49 715 152 607T401 489Q530 484 631 561ZM631 1122V868Q628 779 582 732T467 686Q425 686 393 705T344 754T319 815T311 874Q313
942 343 992T421 1069T521 1109T631 1122Z" />
<glyph unicode=":" glyph-name="colon" horiz-adv-x="509" d="M373 0H139V244H373V0ZM373 567H139V811H373V567Z" />
<glyph unicode="&lt;" glyph-name="less" horiz-adv-x="845" d="M846 -84L367 393L846 872H561L82 393L561 -84H846Z" />
<glyph unicode="=" glyph-name="equal" horiz-adv-x="1073" d="M92 758H981V537H92V758ZM92 315H981V96H92V315Z" />
<glyph unicode="&gt;" glyph-name="greater" horiz-adv-x="1202" d="M295 -84L774 393L295 872H580L1059 393L580 -84H295Z" />
<glyph unicode="[" glyph-name="bracketleft" horiz-adv-x="475" d="M82 1327H475V1161H303V-10H475V-176H82V1327Z" />
<glyph unicode="\" glyph-name="backslash" horiz-adv-x="509" d="M-55 1327H152L565 0H360L-55 1327Z" />
<glyph unicode="]" glyph-name="bracketright" horiz-adv-x="831" d="M688 -176H295V-10H467V1161H295V1327H688V-176Z" />
<glyph unicode="_" glyph-name="underscore" horiz-adv-x="917" d="M918 -125V-227H0V-125H918Z" />
<glyph unicode="{" glyph-name="braceleft" horiz-adv-x="669" d="M670 -334V-279L606 -268Q473 -250 473 -92V309Q473 436 377 465L305 481L381 502Q473 526 473 651V1057Q473 1218 606 1233L670 1245V1298H449Q354 1298 295 1228T236 1028V664Q236 556 147 535L82
518V449L147 432Q236 411 236 299V-63Q236 -195 301 -266Q326 -296 418 -315T571 -334H670Z" />
<glyph unicode="|" glyph-name="bar" horiz-adv-x="364" d="M90 -332H281V1266H90V-332Z" />
<glyph unicode="}" glyph-name="braceright" horiz-adv-x="1026" d="M295 -334V-279L358 -268Q492 -250 492 -92V309Q492 436 588 465L659 481L584 502Q492 526 492 651V1057Q492 1218 358 1233L295 1245V1298H516Q611 1298 670 1228T729 1028V664Q729 556 817
535L883 518V449L817 432Q729 411 729 299V-63Q729 -195 664 -266Q639 -296 547 -315T393 -334H295Z" />
</font>
</defs>
</svg>
